<?xml version="1.0" encoding="UTF-8" standalone="no"?>
<svg xmlns="http://www.w3.org/2000/svg" xmlns:xlink="http://www.w3.org/1999/xlink" version="1.1">
  <metadata>
Created by FontForge 20190801 at Tue Aug 11 23:55:07 2020
 By Unknown
Copyright (c) 2020 by Mika Melvas. All rights reserved.
</metadata>
  <defs>
    <font id="PoliteType-Regular">
      <glyph glyph-name=".notdef" d="M90 710h540v-710h-540v710zM215 640l145 -228l144 228h-289zM400 349l150 -237v474zM319 349l-149 235v-470zM360 286l-138 -216h275z"></glyph>
      <glyph glyph-name=".null"></glyph>
      <glyph glyph-name="uni000D" unicode="&#13;"></glyph>
      <glyph glyph-name="space" unicode=" "></glyph>
      <glyph glyph-name="exclam" unicode="!" d="M84 200l-20 510h110l-20 -510h-70zM60 118h118v-118h-118v118z"></glyph>
      <glyph glyph-name="quotedbl" unicode="&quot;" d="M198 731h92v-134q0 -13 -2.5 -30t-6 -34.5t-7.5 -34t-8 -30.5h-43q-4 14 -8 30.5t-8 34t-6.5 34.5t-2.5 30v134zM38 597v134h92v-134q0 -13 -2.5 -30t-6 -34.5t-7.5 -34t-8 -30.5h-43q-4 14 -8 30.5t-8 34t-6.5 34.5t-2.5 30z"></glyph>
      <glyph glyph-name="numbersign" unicode="#" d="M50 196v85h94q27 0 43 -3.5t27 -11.5l19 11q-6 14 -7.5 33.5t4.5 46.5t14 46.5t14 29.5l-16 11q-16 -9 -32.5 -12t-44.5 -3h-63v85h95q27 0 43 -3.5t27 -11.5l19 11q-6 14 -7.5 33.5t4.5 46.5l27 120h95l-27 -120q-6 -26 -14.5 -48t-14.5 -32l16 -11q16 9 32.5 12t46.5 3 q27 0 43 -3.5t27 -11.5l19 11q-6 14 -7.5 33.5t4.5 46.5l27 120h95l-27 -120q-7 -29 -15 -49.5t-14 -30.5l16 -11q16 9 32.5 12t44.5 3h63v-85h-95q-27 0 -43 3.5t-27 11.5l-19 -11q6 -14 7.5 -33t-4.5 -46q-7 -30 -14.5 -48.5t-13.5 -28.5l16 -11q16 9 32.5 12t44.5 3h64 v-85h-95q-27 0 -43 3.5t-27 11.5l-19 -11q6 -14 7.5 -33t-4.5 -46l-27 -121h-95l28 124q6 27 14 46.5t14 29.5l-16 11q-16 -9 -32.5 -12t-46.5 -3q-27 0 -43 3.5t-27 11.5l-19 -11q6 -14 8.5 -31.5t-5.5 -49.5l-27 -119h-95l28 124q6 27 14 46.5t14 29.5l-16 11 q-16 -9 -32.5 -12t-44.5 -3h-63zM312 266q16 9 32.5 12t46.5 3q27 0 43 -3.5t27 -11.5l19 11q-6 14 -7.5 33.5t4.5 46.5t14 46.5t14 29.5l-16 11q-16 -9 -32.5 -12t-46.5 -3q-27 0 -43 3.5t-27 11.5l-19 -11q6 -14 8 -31.5t-5 -49.5q-6 -26 -14 -45.5t-14 -29.5z"></glyph>
      <glyph glyph-name="dollar" unicode="$" d="M111 199q12 -15 29 -31.5t39 -31.5t49 -26.5t59 -15.5l9 8q-6 15 -7.5 27.5t-1.5 24.5v81q0 23 4.5 38.5t10.5 26.5l-9 10q-38 11 -76.5 25t-69.5 36.5t-50.5 56t-19.5 82.5q0 46 17 82t45.5 61.5t66.5 41t81 19.5l9 8q-6 15 -7.5 27.5t-1.5 23.5v41h58v-41 q0 -11 -1.5 -23.5t-7.5 -27.5l9 -8q29 -3 58.5 -11.5t57 -22.5t51 -32t39.5 -41l-74 -80q-8 12 -20 26t-28 27t-36.5 23t-47.5 13l-9 -8q6 -16 7.5 -28t1.5 -24v-84q0 -22 -4.5 -37.5t-10.5 -26.5l9 -10q38 -10 76.5 -23.5t70 -35t51 -54t19.5 -82.5q0 -47 -17 -83.5 t-45.5 -62.5t-67 -41t-81.5 -20l-9 -8q6 -15 7.5 -27.5t1.5 -24.5v-56h-58v56q0 12 1.5 24.5t7.5 27.5l-9 8q-38 3 -74 13t-67 25t-56.5 34.5t-42.5 40.5zM287 417l9 7q-6 16 -7.5 28.5t-1.5 23.5v80q0 12 1.5 24t7.5 28l-9 8q-48 -7 -78 -31t-30 -65q0 -42 31.5 -65.5 t76.5 -37.5zM336 283q6 -15 7.5 -27.5t1.5 -24.5v-77q0 -12 -1.5 -24.5t-7.5 -27.5l9 -8q49 6 78.5 31.5t29.5 65.5q0 41 -31 63.5t-77 36.5z"></glyph>
      <glyph glyph-name="percent" unicode="%" d="M60 537q0 40 14 74t38.5 58.5t59 38.5t74.5 14q41 0 75.5 -14t59 -38.5t38.5 -58.5t14 -74t-14 -74t-38.5 -58.5t-59 -38.5t-75.5 -14q-40 0 -74.5 14t-59 38.5t-38.5 58.5t-14 74zM504 173q0 40 14 74t38.5 58.5t59 38.5t74.5 14q41 0 75.5 -14t59 -38.5t38.5 -58.5 t14 -74t-14 -74t-38.5 -58.5t-59 -38.5t-75.5 -14q-40 0 -74.5 14t-59 38.5t-38.5 58.5t-14 74zM230 0l411 710h63l-410 -710h-64zM583 173q0 -50 29.5 -81.5t77.5 -31.5t78 31.5t30 81.5t-30 81.5t-78 31.5t-77.5 -31.5t-29.5 -81.5zM246 424q48 0 78 31.5t30 81.5 t-30 81.5t-78 31.5t-77.5 -31.5t-29.5 -81.5t29.5 -81.5t77.5 -31.5z"></glyph>
      <glyph glyph-name="ampersand" unicode="&amp;" d="M180 358l42 24q-16 12 -31.5 27t-28 34.5t-20.5 43.5t-8 53q0 40 15 73.5t42 57.5t64.5 37.5t81.5 13.5q42 0 77 -12t60.5 -33.5t39.5 -52t14 -67.5t-13.5 -65t-31.5 -48t-37 -33t-30 -19l-31 -18l102 -78q20 -15 39.5 -29t39.5 -28q13 32 20 73t7 92l91 1 q0 -130 -46 -224q36 -35 59 -77.5t23 -103.5l-100 -1q0 31 -10 55.5t-27 44.5q-49 -54 -118.5 -82.5t-156.5 -28.5q-124 0 -188.5 49t-64.5 134q0 56 28 101.5t97 85.5zM162 181q0 -48 41 -75t115 -27q54 0 106.5 17.5t92.5 62.5l-65 48l-154 117l-52 -30q-46 -26 -65 -53.5 t-19 -59.5zM310 432l47 27q31 17 47.5 41.5t16.5 53.5q0 35 -23.5 57.5t-61.5 22.5q-42 0 -68.5 -25.5t-26.5 -69.5q0 -35 18.5 -58.5t50.5 -48.5z"></glyph>
      <glyph glyph-name="quotesingle" unicode="'" d="M38 731h92v-134q0 -13 -2.5 -30t-6 -34.5t-7.5 -34t-8 -30.5h-43q-4 14 -8 30.5t-8 34t-6.5 34.5t-2.5 30v134z"></glyph>
      <glyph glyph-name="parenleft" unicode="(" d="M45 306q0 149 57 277.5t160 228.5l67 -63q-90 -94 -136 -202t-46 -241t46 -241t136 -202l-67 -63q-103 100 -160 228.5t-57 277.5z"></glyph>
      <glyph glyph-name="parenright" unicode=")" d="M77 812q103 -100 160 -228.5t57 -277.5t-57 -277.5t-160 -228.5l-67 63q90 94 136 202t46 241t-46 241t-136 202z"></glyph>
      <glyph glyph-name="asterisk" unicode="*" d="M32 575l26 71l71 -26q23 -8 38.5 -24t22.5 -27l16 11q-8 10 -18 30t-10 45v76h75v-76q0 -24 -10 -45t-18 -30l16 -11q7 11 22.5 27t38.5 24l71 26l26 -71l-72 -26q-9 -4 -19 -5t-19 -1q-13 0 -24 2t-18 4l-6 -17q13 -2 33.5 -11t36.5 -28l48 -58l-57 -49l-50 59 q-16 19 -22.5 40.5t-5.5 34.5h-17q1 -13 -5.5 -35t-21.5 -40l-50 -59l-57 49l48 58q15 19 35.5 28t33.5 11l-6 17q-7 -2 -18 -4t-24 -2q-9 0 -19 1t-19 5z"></glyph>
      <glyph glyph-name="plus" unicode="+" d="M60 404h101q28 0 40 -2t23 -10l14 10q-4 8 -5.5 24.5t-1.5 40.5v108h83v-108q0 -24 -1.5 -40.5t-5.5 -24.5l14 -10q11 8 23 10t40 2h101v-83h-101q-28 0 -40 2t-23 10l-14 -10q4 -8 5.5 -24.5t1.5 -40.5v-108h-83v108q0 24 1.5 40.5t5.5 24.5l-14 10q-11 -8 -23 -10 t-40 -2h-101v83z"></glyph>
      <glyph glyph-name="comma" unicode="," d="M178 118v-118l-64 -150h-47l33 114q2 6 6.5 15t12.5 17l-10 11q-8 -5 -15 -6t-11 -1h-23v118h118z"></glyph>
      <glyph glyph-name="hyphen" unicode="-" d="M55 343h288v-91h-288v91z"></glyph>
      <glyph glyph-name="period" unicode="." d="M60 118h118v-118h-118v118z"></glyph>
      <glyph glyph-name="slash" unicode="/" d="M340 770h100l-300 -830h-100z"></glyph>
      <glyph glyph-name="zero" unicode="0" d="M44 355q0 85 17.5 153t50.5 115.5t81.5 73t110.5 25.5t110 -25.5t81 -73t50.5 -115.5t17.5 -153t-17.5 -153t-50.5 -115.5t-81 -73t-110 -25.5t-110.5 25.5t-81.5 73t-50.5 115.5t-17.5 153zM150 355q0 -131 40 -201t114 -70q73 0 113 70t40 201t-40 201.5t-113 70.5 q-74 0 -114 -70t-40 -202z"></glyph>
      <glyph glyph-name="one" unicode="1" d="M198 710h73v-710h-105v482q0 21 10 51t30 54l-22 19q-12 -16 -21.5 -26.5t-23.5 -20.5l-62 -46l-45 66z"></glyph>
      <glyph glyph-name="two" unicode="2" d="M278 722q49 0 90.5 -14t71.5 -40.5t46.5 -63t16.5 -81.5q0 -43 -14 -81.5t-34.5 -70.5t-43.5 -58t-41 -45l-94 -100q-23 -25 -44.5 -40.5t-44.5 -29.5l13 -27q20 11 51 19t84 8h164v-98h-447v79l231 245q17 18 36.5 40t36.5 46.5t28 52t11 56.5q0 51 -32.5 79t-83.5 28 q-29 0 -56.5 -9.5t-50 -27t-38.5 -41t-23 -52.5l-82 69q30 73 96.5 115t152.5 42z"></glyph>
      <glyph glyph-name="three" unicode="3" d="M126 233q2 -38 16.5 -66t36.5 -46.5t50.5 -27.5t59.5 -9q29 0 55 8t45.5 24t31 38.5t11.5 52.5q0 58 -39.5 86t-125.5 28h-34v92h34q70 0 105.5 34.5t35.5 83.5q0 48 -33.5 72t-82.5 24q-31 0 -58 -10.5t-47 -28t-31.5 -39.5t-12.5 -46l-91 45q5 38 24.5 69.5t51 55 t73.5 36.5t91 13q48 0 89 -12.5t71 -36t47.5 -56.5t17.5 -75q0 -65 -38.5 -106.5t-98.5 -55.5v-23q78 -6 119 -46.5t41 -111.5q0 -49 -19 -88t-53 -66.5t-79.5 -42t-99.5 -14.5q-57 0 -104.5 14t-81.5 40.5t-53.5 64.5t-20.5 85z"></glyph>
      <glyph glyph-name="four" unicode="4" d="M356 710h107v-397q0 -13 -1 -24t-7 -24l18 -13q12 8 24 12t27 4h30v-100h-30q-15 0 -27 4t-24 12l-18 -13q6 -13 7 -24t1 -24v-123h-105v123q0 13 1 24t7 24l-18 13q-14 -8 -37 -12t-45 -4h-241v87zM127 268l15 -18q14 8 38.5 13t46.5 5h39q22 0 45 -4t37 -12l18 13 q-6 13 -7 24t-1 24v180q0 16 3.5 35t12.5 42l-25 7q-5 -15 -14 -32t-20 -32l-147 -201q-17 -24 -26 -31.5z"></glyph>
      <glyph glyph-name="five" unicode="5" d="M27 192l97 41q2 -38 16 -66t35.5 -46.5t49.5 -27.5t59 -9q33 0 60 10.5t46.5 30t30 47.5t10.5 62q0 68 -38.5 105.5t-101.5 37.5q-45 0 -78.5 -18t-51.5 -41l-91 19l23 373h403v-98h-236q-29 0 -42.5 5t-24.5 12l-19 -13q6 -17 7.5 -31.5t-0.5 -41.5l-7 -141h24 q15 20 32.5 32t35 18.5t34.5 8.5t32 2q49 0 87.5 -16t65 -45.5t40.5 -69.5t14 -88q0 -56 -18.5 -103t-53 -81t-83.5 -53t-110 -19q-53 0 -98 15t-78 42t-52 64.5t-19 82.5z"></glyph>
      <glyph glyph-name="six" unicode="6" d="M45 345q0 88 18.5 158t54.5 118.5t88 74.5t119 26q48 0 86.5 -13t66 -36.5t44.5 -55t22 -69.5l-91 -45q-5 21 -14 43t-24.5 40t-38 29.5t-55.5 11.5q-42 0 -73.5 -19.5t-52.5 -55t-31.5 -85.5t-10.5 -112h25q19 51 64 79.5t106 28.5q47 0 85.5 -17t66 -47.5t42.5 -71.5 t15 -89q0 -52 -17.5 -97.5t-50 -79.5t-79 -53.5t-104.5 -19.5q-63 0 -111.5 24t-81.5 70t-50.5 112t-17.5 151zM305 84q64 0 104.5 38.5t40.5 106.5q0 66 -39.5 106t-105.5 40t-105 -40t-39 -106q0 -68 40 -106.5t104 -38.5z"></glyph>
      <glyph glyph-name="seven" unicode="7" d="M34 612v98h440v-85l-261 -625h-118l228 539q9 21 24 41.5t31 33.5l-19 24q-14 -9 -41 -17.5t-72 -8.5h-212z"></glyph>
      <glyph glyph-name="eight" unicode="8" d="M39 177q0 32 11.5 62t32.5 54.5t50 42t64 26.5v21q-27 8 -52 19.5t-44 29t-30.5 41.5t-11.5 56q0 42 17.5 77.5t49 61t76 40t97.5 14.5t97 -14t75.5 -38t49 -56t17.5 -68q0 -32 -12.5 -57.5t-33.5 -45t-48.5 -33.5t-57.5 -24v-21q33 -7 64 -19t55 -31.5t38.5 -47.5 t14.5 -67q0 -46 -18.5 -84.5t-53.5 -67t-85 -44.5t-112 -16q-57 0 -103 13.5t-78.5 38.5t-50.5 59.5t-18 77.5zM146 202q0 -56 40 -89.5t112 -33.5t112 32.5t40 83.5q0 33 -17 54.5t-45 36.5t-64 26.5t-73 23.5q-19 -6 -38 -18.5t-34 -29.5t-24 -39t-9 -47zM166 532 q0 -28 14 -47.5t37.5 -33.5t54 -24t63.5 -19q20 9 37 22t30.5 29t21 35t7.5 38q0 50 -36.5 75t-96.5 25q-59 0 -95.5 -26.5t-36.5 -73.5z"></glyph>
      <glyph glyph-name="nine" unicode="9" d="M43 472q0 52 17.5 97.5t50 79.5t79 53.5t104.5 19.5q126 0 193.5 -91t67.5 -256q0 -184 -70 -285.5t-204 -101.5q-98 0 -161.5 46.5t-74.5 127.5l97 41q12 -54 46.5 -87t90.5 -33q42 0 74 19.5t53.5 55t33 85.5t11.5 112h-25q-19 -51 -66 -79.5t-108 -28.5 q-47 0 -85.5 17t-66 47.5t-42.5 71.5t-15 89zM290 335q66 0 103 40t37 106q0 68 -38 106.5t-102 38.5t-102 -38.5t-38 -106.5q0 -66 37 -106t103 -40z"></glyph>
      <glyph glyph-name="colon" unicode=":" d="M60 468h118v-118h-118v118zM178 118v-118h-118v118h118z"></glyph>
      <glyph glyph-name="semicolon" unicode=";" d="M60 118h118v-118l-64 -150h-47l33 114q2 6 6.5 15t12.5 17l-10 11q-8 -5 -15 -6t-11 -1h-23v118zM60 350v118h118v-118h-118z"></glyph>
      <glyph glyph-name="less" unicode="&lt;" d="M517 530v-100l-315 -77q-23 -5 -47.5 -9.5t-44.5 -5.5v-26q19 -2 44 -6t48 -9l315 -77v-100l-452 124v162z"></glyph>
      <glyph glyph-name="equal" unicode="=" d="M50 406v83h425v-83h-425zM475 321v-83h-425v83h425z"></glyph>
      <glyph glyph-name="greater" unicode="&gt;" d="M385 297q23 5 48 9t44 6v26q-20 1 -44.5 5.5t-47.5 9.5l-315 77v100l452 -124v-162l-452 -124v100z"></glyph>
      <glyph glyph-name="question" unicode="?" d="M18 565q15 36 40.5 65.5t58.5 49.5t72 31t81 11q50 0 90.5 -14t70 -39t45.5 -60t16 -78q0 -80 -60.5 -138t-179.5 -79v-27q20 -2 34.5 -12t14.5 -26v-49h-99v174q55 14 90.5 31.5t55.5 37t28 40.5t8 41q0 46 -31 74t-82 28q-28 0 -55.5 -9.5t-50 -27t-39.5 -41t-24 -52.5 zM195 0v118h118v-118h-118z"></glyph>
      <glyph glyph-name="at" unicode="@" d="M50 288q0 97 32.5 177t91 137t140 88.5t180.5 31.5q91 0 169 -26t135 -75.5t89.5 -121t32.5 -161.5q0 -59 -14 -107.5t-38.5 -83.5t-59.5 -54.5t-77 -19.5q-48 0 -80.5 22.5t-43.5 63.5h-16q-13 -35 -48.5 -60.5t-89.5 -25.5q-39 0 -74.5 15t-62 43t-42.5 68t-16 91 t16 91.5t42.5 68t62 42.5t74.5 15q54 0 87 -25t46 -60h21q-3 14 -5.5 29.5t-2.5 47.5h89v-290q0 -27 13.5 -44t36.5 -17q21 0 38 15t29.5 40.5t19 60t6.5 73.5q0 81 -26.5 139t-72 94.5t-106.5 54t-131 17.5q-83 0 -149 -25t-111.5 -71t-70 -111t-24.5 -145q0 -77 23.5 -141 t68 -110t109.5 -71.5t148 -25.5q25 0 53.5 3t57.5 10t58 19t54 30l38 -70q-46 -33 -116.5 -52.5t-148.5 -19.5q-99 0 -179.5 30t-137 85.5t-87.5 134.5t-31 176zM474 158q57 0 91 37t34 95q0 59 -34 96t-91 37t-91 -37t-34 -96q0 -58 34 -95t91 -37z"></glyph>
      <glyph glyph-name="A" unicode="A" d="M14 0l261 710h138l261 -710h-117l-46 125q-4 10 -4 21t5 22l-14 16q-15 -5 -32 -6t-52 -1h-140q-35 0 -52 1t-32 6l-14 -16q5 -11 5 -22t-4 -21l-46 -125h-117zM236 262q15 5 29.5 6.5t33.5 1.5h90q19 0 33.5 -1.5t29.5 -6.5l13 17q-5 7 -12.5 19t-12.5 26l-40 108 q-13 35 -25.5 81.5t-18.5 109.5h-24q-6 -63 -18.5 -109.5t-25.5 -81.5l-40 -108q-5 -14 -12.5 -26t-12.5 -19z"></glyph>
      <glyph glyph-name="B" unicode="B" d="M402 710q47 0 86.5 -10t68.5 -31t45.5 -53t16.5 -76q0 -66 -35.5 -102.5t-95.5 -52.5v-19q33 -2 62 -13t50.5 -31.5t34.5 -51t13 -71.5q0 -45 -16 -82t-45 -63t-69.5 -40t-89.5 -14h-354v710h328zM164 119v-19h243q62 0 94.5 30t32.5 79q0 48 -33 79t-104 31h-149 q-15 0 -37 2t-36 8l-11 -19q16 -17 18 -36t2 -51q0 -37 -2 -62t-18 -42zM164 423l11 -19q14 6 36 8t37 2h133q67 0 98 25.5t31 73.5q0 51 -32 74t-88 23h-142q-15 0 -37 2t-36 8l-11 -19q16 -17 18 -37t2 -52q0 -33 -2 -52.5t-18 -36.5z"></glyph>
      <glyph glyph-name="C" unicode="C" d="M44 355q0 85 29.5 153t80 115.5t118 73t144.5 25.5q94 0 167 -34t119 -95l-86 -75q-35 47 -84 73t-115 26q-58 0 -106 -19.5t-82.5 -54t-53 -83t-18.5 -105.5q0 -59 18 -107t51 -82.5t80.5 -53.5t106.5 -19q36 0 70.5 9t64.5 24t55 34t41 40l61 -90q-14 -23 -43 -45 t-68 -39t-85.5 -27.5t-95.5 -10.5q-80 0 -147.5 24.5t-117 71.5t-77 115t-27.5 156z"></glyph>
      <glyph glyph-name="D" unicode="D" d="M72 0v710h262q85 0 151 -27t111.5 -75t69 -114t23.5 -144q0 -74 -24 -138t-70 -111t-112 -74t-149 -27h-262zM182 472v-234q0 -38 -7 -73.5t-23 -52.5l11 -19q7 3 18 5t23.5 3t23.5 1.5t18 0.5h88q58 0 103 19.5t76 53.5t47 78.5t16 95.5q0 56 -15.5 103t-46.5 81.5 t-76 53.5t-104 19h-88q-7 0 -18 0.5t-23.5 1.5t-23.5 3t-18 5l-11 -19q16 -17 23 -52.5t7 -73.5z"></glyph>
      <glyph glyph-name="E" unicode="E" d="M569 710v-105h-321q-14 0 -36.5 2t-36.5 8l-11 -19q8 -9 12 -16.5t6 -17t2 -22v-29.5q0 -34 -2 -51.5t-18 -34.5l11 -19q14 6 36.5 8t36.5 2h281v-105h-281q-14 0 -36.5 2t-36.5 8l-11 -19q16 -17 18 -38.5t2 -57.5q0 -35 -2 -55t-18 -37l11 -19q14 6 36.5 8t36.5 2h331 v-105h-505v710h495z"></glyph>
      <glyph glyph-name="F" unicode="F" d="M72 710h496v-105h-322q-38 0 -67 13l-17 -20q6 -7 10 -14t6.5 -17t3 -24.5t0.5 -37.5q0 -24 -0.5 -39.5t-3 -25.5t-6.5 -17t-10 -14l17 -20q11 5 29.5 8.5t37.5 3.5h294v-105h-294q-14 0 -34 3t-34 9l-16 -21q16 -20 18 -41t2 -53v-193h-110v710z"></glyph>
      <glyph glyph-name="G" unicode="G" d="M44 345q0 81 27.5 150t77 119.5t119 79t153.5 28.5q91 0 168.5 -35t123.5 -101l-86 -77q-35 51 -89.5 79.5t-122.5 28.5q-58 0 -105.5 -21.5t-81 -58.5t-51.5 -86.5t-18 -104.5q0 -56 18.5 -103t53 -81.5t83 -53.5t108.5 -19q57 0 106 27.5t75 72.5v26q0 18 3 30.5 t19 29.5l-13 18q-11 -6 -33 -12.5t-47 -6.5h-126v99h307v-373h-103v90h-17q-23 -47 -70.5 -74.5t-122.5 -27.5q-77 0 -142 24.5t-112.5 71t-74.5 112.5t-27 149z"></glyph>
      <glyph glyph-name="H" unicode="H" d="M74 710h110v-233q0 -14 -2.5 -37.5t-8.5 -37.5l18 -14q9 4 14 7t16 4.5t32 2.5t60 1h121q39 0 60 -1t32 -2.5t16 -4.5t14 -7l18 14q-6 14 -8.5 37.5t-2.5 37.5v233h110v-710h-110v227q0 14 2.5 37.5t8.5 37.5l-18 14q-9 -4 -14 -7t-16 -4.5t-32 -2.5t-60 -1h-121 q-39 0 -60 1t-32 2.5t-16 4.5t-14 7l-18 -14q6 -14 8.5 -37.5t2.5 -37.5v-227h-110v710z"></glyph>
      <glyph glyph-name="I" unicode="I" d="M74 0v710h110v-710h-110z"></glyph>
      <glyph glyph-name="J" unicode="J" d="M117 227q11 -35 24.5 -60t31 -41.5t40 -24.5t52.5 -8q69 0 105 41.5t36 111.5v464h110v-458q0 -124 -65 -194t-186 -70q-62 0 -106 19t-73.5 48t-45 64t-19.5 67z"></glyph>
      <glyph glyph-name="K" unicode="K" d="M74 0v710h110v-241q0 -23 -3 -50.5t-10 -58.5l25 -9q12 20 28.5 46t48.5 61l231 252h140l-218 -238q-18 -20 -39 -39.5t-44 -37.5v-22q20 -4 44.5 -19t38.5 -34l243 -320h-138l-245 324l-102 -104v-220h-110z"></glyph>
      <glyph glyph-name="L" unicode="L" d="M184 710v-535q0 -29 -3.5 -48.5t-9.5 -33.5l19 -15q14 10 36.5 18.5t57.5 8.5h254v-105h-464v710h110z"></glyph>
      <glyph glyph-name="M" unicode="M" d="M74 0v710h207l135 -442q9 -30 17 -70t14 -78h24q6 38 14 78t17 70l135 442h207v-710h-110v488q0 36 1.5 60t7.5 51l-30 8q-4 -15 -9 -35t-16 -55l-159 -517h-140l-159 517q-11 35 -16 55t-9 35l-30 -8q6 -27 7.5 -51t1.5 -60v-488h-110z"></glyph>
      <glyph glyph-name="N" unicode="N" d="M189 710l313 -442q14 -19 26.5 -47.5t22.5 -55.5l27 8q-4 17 -8.5 48.5t-4.5 82.5v406h110v-710h-115l-313 443q-14 20 -26 48t-23 55l-27 -8q4 -17 8.5 -48.5t4.5 -82.5v-407h-110v710h115z"></glyph>
      <glyph glyph-name="O" unicode="O" d="M44 355q0 80 27 147t75 116t114.5 76.5t145.5 27.5t145.5 -27.5t114.5 -76.5t75 -116t27 -147q0 -79 -27 -146.5t-75.5 -116.5t-115 -76.5t-144.5 -27.5t-144.5 27.5t-115 76.5t-75.5 116.5t-27 146.5zM156 355q0 -57 19 -105t52 -83t79 -54.5t100 -19.5t100 19.5 t79 54.5t52 83t19 105t-19 105t-52 83t-79 54.5t-100 19.5t-100 -19.5t-79 -54.5t-52 -83t-19 -105z"></glyph>
      <glyph glyph-name="P" unicode="P" d="M389 710q51 0 93 -16.5t72 -46.5t46.5 -71.5t16.5 -92.5t-16.5 -92.5t-46.5 -71.5t-72 -46.5t-93 -16.5h-141q-15 0 -37 2t-36 8l-11 -19q16 -17 18 -36t2 -51v-160h-110v710h315zM164 365l11 -19q14 6 36 8t37 2h127q60 0 95 33.5t35 93.5t-35 93.5t-95 33.5h-127 q-15 0 -37 2t-36 8l-11 -19q8 -9 12 -22t6 -29t2 -33v-34v-33.5t-2 -33.5t-6 -29t-12 -22z"></glyph>
      <glyph glyph-name="Q" unicode="Q" d="M406 722q80 0 146.5 -28t114.5 -77.5t74.5 -116.5t26.5 -145q0 -91 -37.5 -170.5t-124.5 -141.5l1 -24q36 0 50.5 -13t24.5 -30l50 -85h-129l-70 118q-57 -21 -127 -21q-80 0 -146.5 28t-114.5 77.5t-74.5 116.5t-26.5 145t26.5 145t74.5 116.5t114.5 77.5t146.5 28z M158 355q0 -57 19.5 -106t53 -84t78.5 -55t97 -20q37 0 73 11l-106 180h129l73 -123q37 35 58 86t21 111q0 57 -19.5 105.5t-53 83t-78.5 54t-97 19.5t-97 -19.5t-78.5 -54t-53 -83t-19.5 -105.5z"></glyph>
      <glyph glyph-name="R" unicode="R" d="M74 710h307q56 0 99 -17.5t71.5 -48t43 -71t14.5 -85.5q0 -41 -13 -76.5t-37 -62.5t-58 -44.5t-77 -23.5v-20q26 -9 45.5 -27.5t33.5 -39.5l134 -194h-134l-185 272h-70q-15 0 -37 2t-36 8l-11 -19q16 -17 18 -36t2 -51v-176h-110v710zM164 373l11 -19q14 6 36 8t37 2 h119q63 0 96.5 33.5t33.5 90.5t-33.5 89.5t-96.5 32.5h-119q-15 0 -37 2t-36 8l-11 -19q8 -9 12 -21.5t6 -27.5t2 -31.5v-32.5v-33t-2 -32.5t-6 -28t-12 -21.5z"></glyph>
      <glyph glyph-name="S" unicode="S" d="M25 104l65 92q14 -16 34.5 -34.5t48.5 -34.5t63.5 -26t80.5 -10q40 0 69.5 8.5t49 22.5t29.5 32.5t10 39.5q0 25 -12 42.5t-32.5 30t-48 20.5t-58.5 15q-45 10 -92.5 22t-86.5 33.5t-64 57t-25 92.5q0 50 20 90t56 67.5t85 42.5t107 15q83 0 150 -29t105 -81l-76 -81 q-9 14 -23 29t-35.5 28.5t-51 22t-70.5 8.5q-75 0 -116.5 -29t-41.5 -74q0 -28 15.5 -46.5t42 -30.5t60 -20.5t69.5 -16.5q42 -10 83.5 -22.5t74.5 -34t53.5 -55t20.5 -85.5q0 -50 -20.5 -90t-56.5 -68.5t-86.5 -43.5t-110.5 -15q-48 0 -92 9.5t-80.5 25.5t-65.5 37t-47 44z "></glyph>
      <glyph glyph-name="T" unicode="T" d="M26 605v105h587v-105h-138q-35 0 -55.5 9t-35.5 19l-19 -15q3 -7 5 -18t3 -23.5t1.5 -23.5t0.5 -18v-535h-110v535q0 7 0.5 18t1.5 23.5t3 23.5t5 18l-19 15q-16 -11 -38 -19.5t-57 -8.5h-135z"></glyph>
      <glyph glyph-name="U" unicode="U" d="M64 273v437h110v-434q0 -89 51 -136t136 -47t136 47t51 136v434h110v-437q0 -65 -20 -118t-58.5 -90t-93.5 -57t-125 -20t-125 20t-93 57t-58.5 90t-20.5 118z"></glyph>
      <glyph glyph-name="V" unicode="V" d="M12 710h117l151 -438q13 -38 26 -84t18 -93h25q5 48 17.5 93t26.5 85l151 437h117l-247 -710h-155z"></glyph>
      <glyph glyph-name="W" unicode="W" d="M12 710h113l96 -428q9 -39 15.5 -67.5t11.5 -50.5t8 -39t5 -33h25q2 16 4.5 32.5t7 38.5t11 51t16.5 69l103 427h147l103 -427q10 -40 16.5 -69t11 -51t7 -38.5t4.5 -32.5h25q2 16 5 33t8 39t11.5 50.5t15.5 67.5l96 428h113l-162 -710h-190l-80 335q-4 20 -11 58t-14 81 t-13 84t-9 65h-21q-3 -24 -9 -65t-13 -84t-13.5 -81t-11.5 -58l-80 -335h-190z"></glyph>
      <glyph glyph-name="X" unicode="X" d="M256 358l-229 352h134l101 -162q21 -33 39 -64t23 -59h25q5 28 23 59t39 64l101 162h134l-229 -352l240 -358h-133l-112 164q-23 33 -40.5 67.5t-22.5 62.5h-25q-5 -28 -22.5 -62.5t-40.5 -67.5l-112 -164h-133z"></glyph>
      <glyph glyph-name="Y" unicode="Y" d="M12 710h126l131 -243q13 -23 25 -55t16 -64h30q4 32 16 64t25 55l131 243h126l-258 -468v-242h-110v242z"></glyph>
      <glyph glyph-name="Z" unicode="Z" d="M40 0v105l341 425q20 26 35.5 40.5t35.5 29.5l-14 24q-19 -8 -41 -13.5t-57 -5.5h-287v105h526v-98l-347 -432q-20 -25 -35.5 -39t-38.5 -31l13 -25q19 8 43 14t59 6h314v-105h-547z"></glyph>
      <glyph glyph-name="bracketleft" unicode="[" d="M284 797v-82h-43q-14 0 -29.5 5t-26.5 13l-19 -14q5 -12 7.5 -27t2.5 -51v-637q0 -36 -2.5 -51t-7.5 -27l19 -14q11 8 26.5 13t29.5 5h43v-82h-210v949h210z"></glyph>
      <glyph glyph-name="backslash" unicode="\" d="M340 -60l-300 830h100l300 -830h-100z"></glyph>
      <glyph glyph-name="bracketright" unicode="]" d="M42 -70h43q14 0 29.5 -5t26.5 -13l19 14q-5 12 -7.5 27t-2.5 51v637q0 36 2.5 51t7.5 27l-19 14q-11 -8 -26.5 -13t-29.5 -5h-43v82h210v-949h-210v82z"></glyph>
      <glyph glyph-name="asciicircum" unicode="^" d="M189 730h122l144 -352h-100l-79 215q-8 22 -11.5 40.5t-8.5 38.5h-12q-5 -20 -8.5 -38.5t-11.5 -40.5l-79 -215h-100z"></glyph>
      <glyph glyph-name="underscore" unicode="_" d="M10 -29h498v-95h-498v95z"></glyph>
      <glyph glyph-name="grave" unicode="`" d="M139 565l-119 145h119l77 -145h-77z"></glyph>
      <glyph glyph-name="a" unicode="a" d="M42 137q0 35 12.5 62.5t35.5 47t55 29.5t70 10q50 0 80.5 -17.5t53.5 -54.5l15 1v55q0 41 -9.5 67t-26 40t-39.5 19t-50 5q-28 0 -48 -7t-33.5 -17.5t-21.5 -21t-11 -18.5l-80 61q11 24 32 42.5t48 31t58.5 18.5t63.5 6q102 0 162 -54.5t60 -156.5v-285h-97v67l-22 2 q-4 -15 -15 -29.5t-29 -26t-42.5 -18.5t-55.5 -7q-35 0 -65.5 10t-53 29.5t-35 47t-12.5 62.5zM146 137q0 -29 22.5 -46.5t64.5 -17.5q20 0 40.5 5t38.5 13.5t32 20.5t21 25q-7 14 -21 25.5t-32 20t-38.5 13.5t-40.5 5q-42 0 -64.5 -17.5t-22.5 -46.5z"></glyph>
      <glyph glyph-name="b" unicode="b" d="M64 710h105v-223l-10 -91h25q15 42 54.5 71t98.5 29q47 0 89 -17t73.5 -49.5t50 -80t18.5 -107.5t-18.5 -107.5t-50 -80t-73.5 -49.5t-89 -17q-59 0 -98.5 29t-54.5 71h-25l10 -88h-105v710zM168 242q0 -34 10.5 -63t30 -50t47 -32.5t60.5 -11.5t60 11.5t46.5 32.5t30 50 t10.5 63t-10.5 63t-30 50t-46.5 32.5t-60 11.5t-60.5 -11.5t-47 -32.5t-30 -50t-10.5 -63z"></glyph>
      <glyph glyph-name="c" unicode="c" d="M40 239q0 57 19 104.5t53.5 81t83 52.5t106.5 19q55 0 102.5 -19.5t75.5 -53.5l-68 -75q-18 24 -49.5 39t-68.5 15q-69 0 -109 -42t-40 -112q0 -37 11.5 -67.5t32.5 -52.5t50 -34t64 -12q48 0 88 17.5t62 46.5l42 -82q-33 -35 -86 -55.5t-109 -20.5q-60 0 -108 17.5 t-81.5 50t-52 79t-18.5 104.5z"></glyph>
      <glyph glyph-name="d" unicode="d" d="M40 242q0 60 18.5 107.5t50 80t73.5 49.5t89 17q59 0 98.5 -29t54.5 -71h25l-10 91v223h105v-710h-105l10 88h-25q-15 -42 -54.5 -71t-98.5 -29q-47 0 -89 17t-73.5 49.5t-50 80t-18.5 107.5zM145 242q0 -34 10.5 -63t30 -50t46.5 -32.5t60 -11.5t60.5 11.5t47 32.5 t30 50t10.5 63t-10.5 63t-30 50t-47 32.5t-60.5 11.5t-60 -11.5t-46.5 -32.5t-30 -50t-10.5 -63z"></glyph>
      <glyph glyph-name="e" unicode="e" d="M40 239q0 51 16.5 97.5t48 82t77.5 56.5t105 21q62 0 107.5 -22t74 -60.5t39.5 -89t3 -107.5h-366q9 -61 51.5 -98t109.5 -37q28 0 52.5 7t44.5 17t35 22.5t24 22.5l51 -79q-10 -9 -27.5 -23.5t-43 -28t-60.5 -23t-82 -9.5q-61 0 -109 18.5t-81.5 51.5t-51.5 79.5 t-18 101.5zM147 279l14 -6q7 5 40.5 12.5t80.5 7.5q29 0 49.5 -2t33.5 -5t20.5 -6t10.5 -6l14 5q0 32 -10 56.5t-27 41t-40 25t-49 8.5q-21 0 -44.5 -8t-43 -24t-33 -40.5t-16.5 -58.5z"></glyph>
      <glyph glyph-name="f" unicode="f" d="M105 484v34q0 43 12.5 80.5t37 65t62 43t88.5 15.5q57 0 96 -18.5t63 -58.5l-83 -67q-8 18 -32 34.5t-54 16.5q-47 0 -66 -21.5t-19 -50.5v-21q0 -18 -8 -29.5t-19 -23.5l17 -19q12 8 25.5 14t33.5 6h162v-90h-211v-394h-105v394h-99v90h99z"></glyph>
      <glyph glyph-name="g" unicode="g" d="M273 496q59 0 98 -29t54 -71h25l-10 88h105v-432q0 -53 -18 -99t-52 -80t-83 -53.5t-112 -19.5q-70 0 -124.5 22.5t-85.5 56.5l62 82q25 -33 66.5 -53.5t84.5 -20.5q33 0 63 12.5t53.5 35t37 53.5t13.5 67v33h-25q-15 -42 -54 -71t-98 -29q-47 0 -89.5 17.5t-74.5 50 t-50.5 79.5t-18.5 107t18.5 107t50.5 79.5t74.5 50t89.5 17.5zM145 242q0 -34 11 -63t30.5 -50t46.5 -32.5t60 -11.5t60.5 11.5t46.5 32.5t29.5 50t10.5 63t-10.5 63t-29.5 50t-46.5 32.5t-60.5 11.5t-60 -11.5t-46.5 -32.5t-30.5 -50t-11 -63z"></glyph>
      <glyph glyph-name="h" unicode="h" d="M64 710h105v-214q0 -37 -3 -60t-7 -40h27q5 17 16.5 34.5t30.5 32t46 24t62 9.5q81 0 128 -53.5t47 -150.5v-292h-105v249q0 71 -27.5 113t-91.5 42q-65 0 -94 -43.5t-29 -111.5v-249h-105v710z"></glyph>
      <glyph glyph-name="i" unicode="i" d="M59 564v100h115v-100h-115zM64 0v484h105v-484h-105z"></glyph>
      <glyph glyph-name="j" unicode="j" d="M9 -200v102q29 0 43.5 18.5t14.5 65.5v498h105v-501q0 -85 -42.5 -134t-120.5 -49zM62 564v100h115v-100h-115z"></glyph>
      <glyph glyph-name="k" unicode="k" d="M64 710h105v-313q0 -40 -3.5 -66.5t-7.5 -40.5l15 -9l199 203h127l-143 -143q-7 -7 -17 -16t-21 -17.5t-21 -15.5t-16 -10v-13q22 -8 46 -28.5t39 -40.5l153 -200h-131l-162 221l-57 -58v-163h-105v710z"></glyph>
      <glyph glyph-name="l" unicode="l" d="M65 0v710h105v-710h-105z"></glyph>
      <glyph glyph-name="m" unicode="m" d="M169 484l-5 -89h25q5 17 16 35t29.5 32.5t44.5 24t61 9.5q60 0 99 -29.5t58 -78.5h22q5 17 18.5 36t35.5 35t50.5 26.5t63.5 10.5q84 0 130 -51.5t46 -141.5v-303h-105v251q0 82 -27.5 117t-94.5 35q-59 0 -89.5 -42.5t-30.5 -111.5v-249h-105v251q0 82 -27.5 117 t-94.5 35q-59 0 -89.5 -42.5t-30.5 -111.5v-249h-105v484h105z"></glyph>
      <glyph glyph-name="n" unicode="n" d="M64 484h105l-5 -89h25q5 17 16 35t29.5 32.5t45 24t61.5 9.5q81 0 128 -53.5t47 -150.5v-292h-105v259q0 74 -28.5 109.5t-90.5 35.5q-65 0 -94 -43.5t-29 -111.5v-249h-105v484z"></glyph>
      <glyph glyph-name="o" unicode="o" d="M40 242q0 56 18.5 102.5t52.5 80t81 52.5t104 19t104 -19t81 -52.5t52.5 -80t18.5 -102.5q0 -55 -18.5 -102t-52.5 -80.5t-81 -52.5t-104 -19t-104 19t-81 52.5t-52.5 80.5t-18.5 102zM143 242q0 -35 11.5 -64.5t31.5 -50.5t48 -33t62 -12t62 12t48.5 33t31.5 50.5 t11 64.5t-11 64.5t-31.5 50.5t-48.5 33t-62 12t-62 -12t-48 -33t-31.5 -50.5t-11.5 -64.5z"></glyph>
      <glyph glyph-name="p" unicode="p" d="M169 484l-10 -88h25q15 42 54.5 71t98.5 29q47 0 89 -17t73.5 -49.5t50 -80t18.5 -107.5t-18.5 -107.5t-50 -80t-73.5 -49.5t-89 -17q-59 0 -98.5 29t-54.5 71h-25l10 -91v-190h-105v677h105zM168 242q0 -34 10.5 -63t30 -50t47 -32.5t60.5 -11.5t60 11.5t46.5 32.5 t30 50t10.5 63t-10.5 63t-30 50t-46.5 32.5t-60 11.5t-60.5 -11.5t-47 -32.5t-30 -50t-10.5 -63z"></glyph>
      <glyph glyph-name="q" unicode="q" d="M271 496q59 0 98.5 -29t54.5 -71h25l-10 88h105v-677h-105v190l10 91h-25q-15 -42 -54.5 -71t-98.5 -29q-47 0 -89 17t-73.5 49.5t-50 80t-18.5 107.5t18.5 107.5t50 80t73.5 49.5t89 17zM145 242q0 -34 10.5 -63t30 -50t46.5 -32.5t60 -11.5t60.5 11.5t47 32.5t30 50 t10.5 63t-10.5 63t-30 50t-47 32.5t-60.5 11.5t-60 -11.5t-46.5 -32.5t-30 -50t-10.5 -63z"></glyph>
      <glyph glyph-name="r" unicode="r" d="M64 484h105v-78h24q12 38 43.5 60.5t71.5 22.5q34 0 66 -16l-30 -109q-41 22 -77 22q-23 0 -40 -9t-29 -21.5t-19 -27.5t-10 -27v-301h-105v484z"></glyph>
      <glyph glyph-name="s" unicode="s" d="M20 72l59 83q26 -41 67 -60.5t78 -19.5q7 0 23.5 1.5t33.5 7t30 16t13 29.5q0 23 -20 34.5t-50.5 19.5t-66 16t-66 23.5t-50.5 43t-20 73.5q0 72 50 114.5t136 42.5q49 0 97 -16.5t83 -55.5l-69 -77q-38 62 -118 62q-42 0 -62.5 -14.5t-20.5 -39.5q0 -26 20 -39t50.5 -21 t66 -15.5t66 -22.5t50.5 -41.5t20 -72.5q0 -73 -52.5 -114t-146.5 -41q-65 0 -118 21t-83 63z"></glyph>
      <glyph glyph-name="t" unicode="t" d="M116 484v196h105v-126q0 -18 -9 -39t-26 -32l17 -19q12 8 25.5 14t33.5 6h162v-90h-203v-210q0 -55 20.5 -79.5t57.5 -24.5q31 0 67.5 18t63.5 46l39 -84q-40 -35 -87.5 -53.5t-97.5 -18.5q-77 0 -122.5 43.5t-45.5 134.5v228h-107v90h107z"></glyph>
      <glyph glyph-name="u" unicode="u" d="M63 187v297h105v-269q0 -132 119 -132q123 0 123 132v269h105v-484h-105l5 89h-25q-5 -17 -16 -35t-29.5 -32.5t-45 -24t-61.5 -9.5q-83 0 -129 52.5t-46 146.5z"></glyph>
      <glyph glyph-name="v" unicode="v" d="M12 484h114l87 -237q18 -49 25.5 -88.5t9.5 -69.5h25q2 30 9.5 69.5t25.5 88.5l87 237h114l-191 -484h-115z"></glyph>
      <glyph glyph-name="w" unicode="w" d="M10 484h111l57 -237q5 -19 10.5 -40.5t11 -42.5t9 -40.5t4.5 -34.5h25q1 15 5 34.5t9 41t11 43t10 39.5l57 237h138l57 -237q5 -18 10.5 -39.5l11 -43t9 -41t4.5 -34.5h25q1 15 5 34.5t9 40.5t11 42.5t10 40.5l57 237h111l-137 -484h-152l-63 221q-3 12 -7.5 32 t-8.5 43.5t-7 47.5t-4 42h-20q-1 -18 -4 -42t-7 -47.5t-8.5 -43.5t-7.5 -32l-63 -221h-152z"></glyph>
      <glyph glyph-name="x" unicode="x" d="M179 246l-164 238h124l59 -93q14 -22 23 -46.5t14 -45.5h23q5 21 14 45.5t23 46.5l62 93h121l-164 -238l169 -246h-123l-58 91q-14 23 -24.5 47.5t-19.5 44.5h-23q-9 -20 -19.5 -44.5t-24.5 -47.5l-58 -91h-123z"></glyph>
      <glyph glyph-name="y" unicode="y" d="M27 -84q6 -6 14.5 -9.5t17.5 -5.5t17 -3t13 -1q67 0 120 123l-199 464h115l77 -197q20 -50 31.5 -94t13.5 -74h25q2 30 13.5 74t31.5 94l77 197h114l-210 -488q-25 -58 -50 -96t-50.5 -60t-52 -31t-54.5 -9q-22 0 -45 5t-48 18z"></glyph>
      <glyph glyph-name="z" unicode="z" d="M243 325q17 18 38 32.5t43 25.5l-12 26q-19 -8 -47.5 -13.5t-63.5 -5.5h-159v94h388v-86l-211 -239q-17 -20 -38 -33.5t-43 -24.5l12 -26q19 8 47.5 13.5t63.5 5.5h187v-94h-416v86z"></glyph>
      <glyph glyph-name="braceleft" unicode="{" d="M38 277v91h17q63 0 63 70v221q0 67 38.5 102.5t108.5 35.5h63v-82h-40q-68 0 -68 -69v-190q0 -53 -27 -82.5t-61 -38.5v-24q34 -10 61 -39.5t27 -82.5v-190q0 -69 68 -69h40v-82h-63q-70 0 -108.5 35.5t-38.5 102.5v221q0 70 -63 70h-17z"></glyph>
      <glyph glyph-name="bar" unicode="|" d="M74 810h85v-980h-85v980z"></glyph>
      <glyph glyph-name="braceright" unicode="}" d="M40 797h63q70 0 108.5 -35.5t38.5 -102.5v-221q0 -70 63 -70h17v-91h-17q-63 0 -63 -70v-221q0 -67 -38.5 -102.5t-108.5 -35.5h-63v82h40q68 0 68 69v190q0 53 27 82.5t61 39.5v24q-34 9 -61 38.5t-27 82.5v190q0 69 -68 69h-40v82z"></glyph>
      <glyph glyph-name="asciitilde" unicode="~" d="M205 449q35 0 60 -11.5t46 -25t40 -25t43 -11.5q25 0 35 15t9 50l78 2q2 -69 -31 -107t-94 -38q-35 0 -61.5 11.5t-48 25t-40.5 25t-39 11.5q-44 0 -44 -69h-78q0 71 32.5 109t92.5 38z"></glyph>
      <glyph glyph-name="uni00A0" unicode=" "></glyph>
      <glyph glyph-name="exclamdown" unicode="¡" d="M178 392h-118v118h118v-118zM154 310l20 -510h-110l20 510h70z"></glyph>
      <glyph glyph-name="cent" unicode="¢" d="M266 494l10 8q-6 18 -7.5 31t-1.5 32v48h59v-48q0 -19 -1.5 -32t-7.5 -31l10 -8q49 -3 90 -21.5t67 -49.5l-68 -75q-14 20 -37 33t-52 18l-10 -8q6 -18 7.5 -31t1.5 -32v-172q0 -19 -1.5 -34t-7.5 -29l9 -8q42 3 76.5 19t54.5 42l42 -82q-30 -31 -75.5 -50.5t-96.5 -23.5 l-10 -8q6 -18 7.5 -31t1.5 -32v-48h-59v48q0 19 1.5 32t7.5 31l-10 8q-104 11 -163 76t-59 170q0 53 16 98t45 78.5t70 54.5t91 27zM266 85l10 8q-6 14 -7.5 29t-1.5 34v172q0 19 1.5 32t7.5 31l-10 8q-55 -10 -85.5 -50.5t-30.5 -100.5q0 -63 31 -107t85 -56z"></glyph>
      <glyph glyph-name="sterling" unicode="£" d="M34 288v59h99q-8 14 -17.5 32t-17 39.5t-12.5 45.5t-5 48q0 48 17.5 87t49 66.5t75.5 42t96 14.5q36 0 72 -8t67.5 -25t56 -43t39.5 -62l-76 -69q-41 110 -153 111q-64 0 -100.5 -31t-36.5 -91q0 -25 4.5 -44t9.5 -34.5t9.5 -28t4.5 -23.5q0 -8 -2.5 -16.5t-5.5 -14.5 l16 -13q15 9 28.5 13t34.5 4h169v-59h-205q2 -8 2.5 -16.5t0.5 -13.5q0 -38 -17 -78.5t-62 -88.5l23 -20q14 11 35 20.5t51 9.5h259v-101h-479v82q34 33 54.5 63t29.5 57t9 51.5t-7 45.5l-17 6q-9 -8 -16.5 -12.5t-28.5 -4.5h-54z"></glyph>
      <glyph glyph-name="yen" unicode="¥" d="M144 710l123 -243q8 -16 21 -49t18 -80h30q5 47 18 80t21 49l123 243h124l-162 -303q-13 -23 -29 -38t-25 -22l12 -15q15 10 36 12.5t41 2.5h87v-59h-96q-17 0 -28.5 0.5t-19.5 2t-14 4.5t-14 8l-17 -14q0 -23 -11 -41.5t-19 -31.5l17 -14q15 10 33 12.5t53 2.5h116v-59 h-116q-35 0 -53 2.5t-33 12.5l-17 -14q8 -13 10.5 -29.5t2.5 -30.5v-99h-110v99q0 14 2.5 30.5t10.5 29.5l-17 14q-15 -10 -33 -12.5t-53 -2.5h-116v59h116q35 0 53 -2.5t33 -12.5l17 14q-8 13 -19 31.5t-11 41.5l-17 14q-7 -5 -13.5 -8t-14.5 -4.5t-19.5 -2t-28.5 -0.5h-96 v59h87q20 0 41 -2.5t36 -12.5l12 15q-9 7 -25 22t-29 38l-162 303h124z"></glyph>
      <glyph glyph-name="brokenbar" unicode="¦" d="M159 276v-446h-85v446h85zM74 365v445h85v-445h-85z"></glyph>
      <glyph glyph-name="section" unicode="§" d="M48 275q0 45 27 79.5t72 51.5v12q-35 20 -56.5 55t-21.5 73q0 40 16.5 72.5t45.5 55.5t69.5 35.5t88.5 12.5q35 0 68.5 -7t62.5 -20t53 -30t39 -38l-66 -70q-8 12 -21 25.5t-32 25.5t-44.5 20t-58.5 8q-61 0 -95 -27t-34 -65q0 -25 13.5 -41.5t36 -27.5t52 -19t61.5 -15 q39 -9 79 -19.5t72 -28.5t52 -45.5t20 -71.5q0 -48 -25 -78t-74 -51v-13q33 -17 56.5 -47.5t23.5 -75.5q0 -42 -17.5 -74.5t-49 -54.5t-74 -33.5t-93.5 -11.5q-76 0 -141.5 27.5t-99.5 73.5l56 79q12 -16 29.5 -32.5t40.5 -30t52.5 -22.5t66.5 -9q61 0 98.5 21.5t37.5 62.5 q0 26 -14 43t-37.5 28t-54 19t-63.5 16q-39 9 -78 20t-70 29t-50 45t-19 68zM141 290q0 -22 11 -37.5t30 -26t44.5 -18t55.5 -13.5q20 -4 40.5 -8.5t44.5 -9.5q43 9 65 32t22 52q0 23 -12 38t-32.5 26t-47 18.5t-56.5 14.5q-20 5 -41.5 10t-41.5 11q-39 -11 -60.5 -34.5 t-21.5 -54.5z"></glyph>
      <glyph glyph-name="dieresis" unicode="¨" d="M248 661h106v-94h-106v94zM186 661v-94h-106v94h106z"></glyph>
      <glyph glyph-name="copyright" unicode="©" d="M50 355q0 79 28 146.5t77.5 116.5t117 76.5t147.5 27.5t147.5 -27.5t117 -76.5t77.5 -116.5t28 -146.5t-28 -146.5t-77.5 -116.5t-117 -76.5t-147.5 -27.5t-147.5 27.5t-117 76.5t-77.5 116.5t-28 146.5zM420 56q66 0 120 21.5t92.5 61t59.5 94.5t21 122t-21 122 t-59.5 94.5t-92.5 61t-120 21.5t-120 -21.5t-92.5 -61t-59.5 -94.5t-21 -122t21 -122t59.5 -94.5t92.5 -61t120 -21.5zM212 359q0 44 16 81.5t45 65t68.5 43t86.5 15.5q45 0 84 -16t62 -44l-56 -61q-15 20 -41.5 31.5t-55.5 11.5q-55 0 -88.5 -34.5t-33.5 -92.5 q0 -60 36 -96.5t94 -36.5q38 0 71.5 14t51.5 37l34 -67q-27 -29 -70 -45.5t-90 -16.5q-100 0 -157 55.5t-57 155.5z"></glyph>
      <glyph glyph-name="guillemotleft" unicode="«" d="M240 272l170 224h117l-123 -163q-12 -16 -29.5 -29.5t-37.5 -21.5v-20q20 -8 37.5 -21.5t29.5 -29.5l123 -163h-117zM200 496h117l-123 -163q-12 -16 -29.5 -29.5t-37.5 -21.5v-20q20 -8 37.5 -21.5t29.5 -29.5l123 -163h-117l-170 224z"></glyph>
      <glyph glyph-name="uni00AD" unicode="­" d="M55 343h288v-91h-288v91z"></glyph>
      <glyph glyph-name="registered" unicode="®" d="M50 507q0 47 16 86t44.5 68t68.5 45t88 16t88 -16t68.5 -45t44.5 -68t16 -86q0 -46 -16 -85.5t-44.5 -68.5t-68.5 -45t-88 -16t-88 16t-68.5 45t-44.5 68.5t-16 85.5zM267 324q40 0 73 13.5t56.5 37.5t36.5 57.5t13 74.5t-13 74.5t-36.5 57.5t-56.5 37.5t-73 13.5 t-73 -13.5t-57 -37.5t-37 -57.5t-13 -74.5t13 -74.5t37 -57.5t57 -37.5t73 -13.5zM181 389v244h105q39 0 58.5 -22.5t19.5 -53.5q0 -29 -17 -48t-45 -23v-7q8 -3 14.5 -9.5t11.5 -13.5l46 -67h-46l-64 93h-23q-6 0 -13 1t-12 3l-5 -6q6 -7 7 -13t1 -17v-61h-38zM219 557 q0 -12 -1 -23t-7 -17l5 -6q5 2 12 2.5t13 0.5h40q22 0 33.5 11.5t11.5 31.5t-11.5 31t-33.5 11h-40q-6 0 -13 0.5t-12 3.5l-5 -7q6 -6 7 -17t1 -22z"></glyph>
      <glyph glyph-name="macron" unicode="¯" d="M30 658h295v-75h-295v75z"></glyph>
      <glyph glyph-name="degree" unicode="°" d="M48 562q0 34 12 63.5t34 51t51.5 33.5t64.5 12t64.5 -12t51 -33.5t34 -51t12.5 -63.5t-12.5 -63.5t-34 -51.5t-51 -34t-64.5 -12t-64.5 12t-51.5 34t-34 51.5t-12 63.5zM119 562q0 -42 25 -68t66 -26q40 0 65 26t25 68q0 41 -25 67t-65 26q-41 0 -66 -26t-25 -67z"></glyph>
      <glyph glyph-name="plusminus" unicode="±" d="M60 321v83h101q28 0 40 -2t23 -10l14 10q-4 8 -5.5 24.5t-1.5 40.5v88h83v-88q0 -24 -1.5 -40.5t-5.5 -24.5l14 -10q11 8 23 10t40 2h101v-83h-101q-28 0 -40 2t-23 10l-14 -10q4 -8 5.5 -24.5t1.5 -40.5v-88h-83v88q0 24 1.5 40.5t5.5 24.5l-14 10q-11 -8 -23 -10 t-40 -2h-101zM60 83h425v-83h-425v83z"></glyph>
      <glyph glyph-name="twosuperior" unicode="²" d="M146 715q54 0 81 -25.5t27 -61.5q0 -28 -13.5 -50t-46.5 -54l-31 -30q-14 -13 -25.5 -22t-20.5 -15l7 -11q9 5 22 8.5t36 3.5h66v-50h-211v42l109 101q15 14 24.5 24t15 18t7 15t1.5 16q0 20 -14 30.5t-36 10.5q-23 0 -43 -14t-26 -34l-48 30q14 32 45.5 50t73.5 18z"></glyph>
      <glyph glyph-name="threesuperior" unicode="³" d="M67 507q1 -16 7.5 -26.5t15.5 -16t19.5 -8t20.5 -2.5q25 -1 41 10t16 32q0 25 -16.5 33.5t-53.5 8.5h-14v46h14q60 0 60 42q0 20 -12.5 29.5t-32.5 9.5t-36.5 -11.5t-17.5 -31.5l-53 19q5 34 35 54t75 20q44 0 73 -20t29 -56q0 -27 -16 -45t-42 -24v-10q33 -2 50.5 -19 t17.5 -46q0 -24 -10 -41t-26.5 -28.5t-38.5 -17t-45 -5.5q-48 0 -81 23t-34 64z"></glyph>
      <glyph glyph-name="acute" unicode="´" d="M97 710h119l-119 -145h-77z"></glyph>
      <glyph glyph-name="paragraph" unicode="¶" d="M48 493q0 45 16 84.5t46 69t72 46.5t94 17h276v-867h-86v793h-104v-793h-86v432q-52 0 -94 17t-72 46.5t-46 69.5t-16 85z"></glyph>
      <glyph glyph-name="periodcentered" unicode="·" d="M60 408h118v-118h-118v118z"></glyph>
      <glyph glyph-name="cedilla" unicode="¸" d="M30 -204l31 59q8 -8 25.5 -15t37.5 -7q51 0 51 34q0 16 -12.5 23.5t-30.5 7.5q-17 0 -34 -6l-42 26l37 88h57l-25 -65l5 -4q17 6 35 6q33 0 60 -19t27 -58q0 -43 -36 -70.5t-92 -27.5q-26 0 -51 7t-43 21z"></glyph>
      <glyph glyph-name="onesuperior" unicode="¹" d="M99 710h63v-302h-60v205q0 9 4.5 21.5t12.5 23.5l-9 8q-5 -7 -9.5 -11t-9.5 -9l-36 -27l-27 35z"></glyph>
      <glyph glyph-name="guillemotright" unicode="»" d="M252 496h117l170 -224l-170 -224h-117l123 163q12 16 29.5 29.5t37.5 21.5v20q-20 8 -37.5 21.5t-29.5 29.5zM165 211q12 16 29.5 29.5t37.5 21.5v20q-20 8 -37.5 21.5t-29.5 29.5l-123 163h117l170 -224l-170 -224h-117z"></glyph>
      <glyph glyph-name="questiondown" unicode="¿" d="M282 196v27q-20 2 -34.5 12t-14.5 26v49h99v-174q-55 -13 -90.5 -31t-55.5 -37.5t-28 -40.5t-8 -41q0 -46 31 -74t82 -28q28 0 55.5 9.5t50 27t39.5 41t24 52.5l84 -69q-15 -36 -40.5 -65.5t-58.5 -49.5t-72 -31t-81 -11q-49 0 -90 14t-70.5 39t-45.5 60t-16 78 q0 80 60.5 138t179.5 79zM221 392v118h118v-118h-118z"></glyph>
      <glyph glyph-name="Agrave" unicode="À" d="M275 710h138l261 -710h-117l-46 125q-4 10 -4 21t5 22l-14 16q-15 -5 -32 -6t-52 -1h-140q-35 0 -52 1t-32 6l-14 -16q5 -11 5 -22t-4 -21l-46 -125h-117zM223 279l13 -17q15 5 29.5 6.5t33.5 1.5h90q19 0 33.5 -1.5t29.5 -6.5l13 17q-5 7 -12.5 19t-12.5 26l-40 108 q-13 35 -25.5 81.5t-18.5 109.5h-24q-6 -63 -18.5 -109.5t-25.5 -81.5l-40 -108q-5 -14 -12.5 -26t-12.5 -19zM197 936h119l77 -145h-77z"></glyph>
      <glyph glyph-name="Aacute" unicode="Á" d="M14 0l261 710h138l261 -710h-117l-46 125q-4 10 -4 21t5 22l-14 16q-15 -5 -32 -6t-52 -1h-140q-35 0 -52 1t-32 6l-14 -16q5 -11 5 -22t-4 -21l-46 -125h-117zM223 279l13 -17q15 5 29.5 6.5t33.5 1.5h90q19 0 33.5 -1.5t29.5 -6.5l13 17q-5 7 -12.5 19t-12.5 26 l-40 108q-13 35 -25.5 81.5t-18.5 109.5h-24q-6 -63 -18.5 -109.5t-25.5 -81.5l-40 -108q-5 -14 -12.5 -26t-12.5 -19zM370 936h119l-119 -145h-77z"></glyph>
      <glyph glyph-name="Acircumflex" unicode="Â" d="M14 0l261 710h138l261 -710h-117l-46 125q-4 10 -4 21t5 22l-14 16q-15 -5 -32 -6t-52 -1h-140q-35 0 -52 1t-32 6l-14 -16q5 -11 5 -22t-4 -21l-46 -125h-117zM223 279l13 -17q15 5 29.5 6.5t33.5 1.5h90q19 0 33.5 -1.5t29.5 -6.5l13 17q-5 7 -12.5 19t-12.5 26 l-40 108q-13 35 -25.5 81.5t-18.5 109.5h-24q-6 -63 -18.5 -109.5t-25.5 -81.5l-40 -108q-5 -14 -12.5 -26t-12.5 -19zM298 906h94l114 -120h-97l-59 70h-10l-59 -70h-97z"></glyph>
      <glyph glyph-name="Atilde" unicode="Ã" d="M275 710h138l261 -710h-117l-46 125q-4 10 -4 21t5 22l-14 16q-15 -5 -32 -6t-52 -1h-140q-35 0 -52 1t-32 6l-14 -16q5 -11 5 -22t-4 -21l-46 -125h-117zM223 279l13 -17q15 5 29.5 6.5t33.5 1.5h90q19 0 33.5 -1.5t29.5 -6.5l13 17q-5 7 -12.5 19t-12.5 26l-40 108 q-13 35 -25.5 81.5t-18.5 109.5h-24q-6 -63 -18.5 -109.5t-25.5 -81.5l-40 -108q-5 -14 -12.5 -26t-12.5 -19zM193 792q0 47 23.5 74t67.5 27q24 0 41 -8t30.5 -17t24.5 -17t23 -8t18 9t6 24v6.5t-1 7.5h70q1 -5 1 -10v-10q0 -46 -24 -72.5t-66 -26.5q-24 0 -41.5 8t-31 17 t-24.5 17t-22 8t-18 -8t-7 -25v-6.5t1 -7.5h-70q-1 5 -1 9v9z"></glyph>
      <glyph glyph-name="Adieresis" unicode="Ä" d="M275 710h138l261 -710h-117l-46 125q-4 10 -4 21t5 22l-14 16q-15 -5 -32 -6t-52 -1h-140q-35 0 -52 1t-32 6l-14 -16q5 -11 5 -22t-4 -21l-46 -125h-117zM236 262q15 5 29.5 6.5t33.5 1.5h90q19 0 33.5 -1.5t29.5 -6.5l13 17q-5 7 -12.5 19t-12.5 26l-40 108 q-13 35 -25.5 81.5t-18.5 109.5h-24q-6 -63 -18.5 -109.5t-25.5 -81.5l-40 -108q-5 -14 -12.5 -26t-12.5 -19zM376 793v94h106v-94h-106zM208 793v94h106v-94h-106z"></glyph>
      <glyph glyph-name="Aring" unicode="Å" d="M14 0l261 710h138l261 -710h-117l-46 125q-4 10 -4 21t5 22l-14 16q-15 -5 -32 -6t-52 -1h-140q-35 0 -52 1t-32 6l-14 -16q5 -11 5 -22t-4 -21l-46 -125h-117zM236 262q15 5 29.5 6.5t33.5 1.5h90q19 0 33.5 -1.5t29.5 -6.5l13 17q-5 7 -12.5 19t-12.5 26l-40 108 q-13 35 -25.5 81.5t-18.5 109.5h-24q-6 -63 -18.5 -109.5t-25.5 -81.5l-40 -108q-5 -14 -12.5 -26t-12.5 -19zM252 853q0 39 27 66t66 27t66 -27t27 -66t-27 -66t-66 -27t-66 27t-27 66zM304 853q0 -18 12 -29.5t29 -11.5t29 11.5t12 29.5t-12 29.5t-29 11.5t-29 -11.5 t-12 -29.5z"></glyph>
      <glyph glyph-name="AE" unicode="Æ" d="M400 710h547v-105h-321q-14 0 -36.5 2t-36.5 8l-11 -19q8 -9 12 -16.5t6 -17t2 -22v-29.5q0 -34 -2 -51.5t-18 -34.5l11 -19q14 6 36.5 8t36.5 2h281v-105h-281q-14 0 -36.5 2t-36.5 8l-11 -19q16 -17 18 -38.5t2 -57.5q0 -35 -2 -55t-18 -37l11 -19q14 6 36.5 8t36.5 2 h331v-105h-505v95q0 14 1.5 31.5t12.5 34.5l-11 19q-14 -6 -33.5 -8t-33.5 -2h-69q-35 0 -60.5 4t-40.5 12l-15 -11q0 -17 -8.5 -37t-22.5 -45l-53 -93h-122zM263 273l9 -18q15 5 29 6.5t33 1.5h54q14 0 33.5 -2t33.5 -8l11 14q-13 17 -13.5 41t-0.5 60v238h-20 q-10 -36 -22.5 -70t-28.5 -63l-77 -147q-13 -24 -23 -35t-18 -18z"></glyph>
      <glyph glyph-name="Ccedilla" unicode="Ç" d="M416 722q94 0 167 -34t119 -95l-86 -75q-35 47 -84 73t-115 26q-58 0 -106 -19.5t-82.5 -54t-53 -83t-18.5 -105.5q0 -59 18 -107t51 -82.5t80.5 -53.5t106.5 -19q36 0 70.5 9t64.5 24t55 34t41 40l61 -90q-13 -21 -38.5 -41t-59.5 -36.5t-74.5 -28t-84.5 -15.5l-19 -48 l5 -4q17 6 35 6q33 0 60 -19t27 -58q0 -43 -36 -70.5t-92 -27.5q-26 0 -51 7t-43 21l31 59q8 -8 25.5 -15t37.5 -7q51 0 51 34q0 16 -12.5 23.5t-30.5 7.5q-17 0 -34 -6l-42 26l30 71q-75 3 -138.5 29t-109.5 73t-72 113.5t-26 150.5q0 85 29.5 153t80 115.5t118 73 t144.5 25.5z"></glyph>
      <glyph glyph-name="Egrave" unicode="È" d="M74 710h495v-105h-321q-14 0 -36.5 2t-36.5 8l-11 -19q8 -9 12 -16.5t6 -17t2 -22v-29.5q0 -34 -2 -51.5t-18 -34.5l11 -19q14 6 36.5 8t36.5 2h281v-105h-281q-14 0 -36.5 2t-36.5 8l-11 -19q16 -17 18 -38.5t2 -57.5q0 -35 -2 -55t-18 -37l11 -19q14 6 36.5 8t36.5 2 h331v-105h-505v710zM183 936h119l77 -145h-77z"></glyph>
      <glyph glyph-name="Eacute" unicode="É" d="M74 710h495v-105h-321q-14 0 -36.5 2t-36.5 8l-11 -19q8 -9 12 -16.5t6 -17t2 -22v-29.5q0 -34 -2 -51.5t-18 -34.5l11 -19q14 6 36.5 8t36.5 2h281v-105h-281q-14 0 -36.5 2t-36.5 8l-11 -19q16 -17 18 -38.5t2 -57.5q0 -35 -2 -55t-18 -37l11 -19q14 6 36.5 8t36.5 2 h331v-105h-505v710zM356 936h119l-119 -145h-77z"></glyph>
      <glyph glyph-name="Ecircumflex" unicode="Ê" d="M74 710h495v-105h-321q-14 0 -36.5 2t-36.5 8l-11 -19q8 -9 12 -16.5t6 -17t2 -22v-29.5q0 -34 -2 -51.5t-18 -34.5l11 -19q14 6 36.5 8t36.5 2h281v-105h-281q-14 0 -36.5 2t-36.5 8l-11 -19q16 -17 18 -38.5t2 -57.5q0 -35 -2 -55t-18 -37l11 -19q14 6 36.5 8t36.5 2 h331v-105h-505v710zM170 786l114 120h94l114 -120h-97l-59 70h-10l-59 -70h-97z"></glyph>
      <glyph glyph-name="Edieresis" unicode="Ë" d="M569 710v-105h-321q-14 0 -36.5 2t-36.5 8l-11 -19q8 -9 12 -16.5t6 -17t2 -22v-29.5q0 -34 -2 -51.5t-18 -34.5l11 -19q14 6 36.5 8t36.5 2h281v-105h-281q-14 0 -36.5 2t-36.5 8l-11 -19q16 -17 18 -38.5t2 -57.5q0 -35 -2 -55t-18 -37l11 -19q14 6 36.5 8t36.5 2h331 v-105h-505v710h495zM362 793v94h106v-94h-106zM194 887h106v-94h-106v94z"></glyph>
      <glyph glyph-name="Igrave" unicode="Ì" d="M100 791l-119 145h119l77 -145h-77zM74 0v710h110v-710h-110z"></glyph>
      <glyph glyph-name="Iacute" unicode="Í" d="M154 936h119l-119 -145h-77zM74 0v710h110v-710h-110z"></glyph>
      <glyph glyph-name="Icircumflex" unicode="Î" d="M184 710v-710h-110v710h110zM-32 786l114 120h94l114 -120h-97l-59 70h-10l-59 -70h-97z"></glyph>
      <glyph glyph-name="Idieresis" unicode="Ï" d="M74 710h110v-710h-110v710zM160 793v94h106v-94h-106zM98 887v-94h-106v94h106z"></glyph>
      <glyph glyph-name="Eth" unicode="Ð" d="M72 404v306h262q85 0 151 -27t111.5 -75t69 -114t23.5 -144q0 -74 -24 -138t-70 -111t-112 -74t-149 -27h-262v320h-72v84h72zM163 93q7 3 18 5t23.5 3t23.5 1.5t18 0.5h88q58 0 103 19.5t76 53.5t47 78.5t16 95.5q0 56 -15.5 103t-46.5 81.5t-76 53.5t-104 19h-88 q-7 0 -18 0.5t-23.5 1.5t-23.5 3t-18 5l-11 -19q16 -17 23 -52.5t7 -73.5v-68h192v-84h-192v-82q0 -38 -7 -73.5t-23 -52.5z"></glyph>
      <glyph glyph-name="Ntilde" unicode="Ñ" d="M189 710l313 -442q14 -19 26.5 -47.5t22.5 -55.5l27 8q-4 17 -8.5 48.5t-4.5 82.5v406h110v-710h-115l-313 443q-14 20 -26 48t-23 55l-27 -8q4 -17 8.5 -48.5t4.5 -82.5v-407h-110v710h115zM227 792q0 47 23.5 74t67.5 27q24 0 41 -8t30.5 -17t24.5 -17t23 -8t18 9t6 24 v6.5t-1 7.5h70q1 -5 1 -10v-10q0 -46 -24 -72.5t-66 -26.5q-24 0 -41.5 8t-31 17t-24.5 17t-22 8t-18 -8t-7 -25v-6.5t1 -7.5h-70q-1 5 -1 9v9z"></glyph>
      <glyph glyph-name="Ograve" unicode="Ò" d="M44 355q0 80 27 147t75 116t114.5 76.5t145.5 27.5t145.5 -27.5t114.5 -76.5t75 -116t27 -147q0 -79 -27 -146.5t-75.5 -116.5t-115 -76.5t-144.5 -27.5t-144.5 27.5t-115 76.5t-75.5 116.5t-27 146.5zM406 93q54 0 100 19.5t79 54.5t52 83t19 105t-19 105t-52 83 t-79 54.5t-100 19.5t-100 -19.5t-79 -54.5t-52 -83t-19 -105t19 -105t52 -83t79 -54.5t100 -19.5zM377 936l77 -145h-77l-119 145h119z"></glyph>
      <glyph glyph-name="Oacute" unicode="Ó" d="M44 355q0 80 27 147t75 116t114.5 76.5t145.5 27.5t145.5 -27.5t114.5 -76.5t75 -116t27 -147q0 -79 -27 -146.5t-75.5 -116.5t-115 -76.5t-144.5 -27.5t-144.5 27.5t-115 76.5t-75.5 116.5t-27 146.5zM406 93q54 0 100 19.5t79 54.5t52 83t19 105t-19 105t-52 83 t-79 54.5t-100 19.5t-100 -19.5t-79 -54.5t-52 -83t-19 -105t19 -105t52 -83t79 -54.5t100 -19.5zM354 791l77 145h119l-119 -145h-77z"></glyph>
      <glyph glyph-name="Ocircumflex" unicode="Ô" d="M44 355q0 80 27 147t75 116t114.5 76.5t145.5 27.5t145.5 -27.5t114.5 -76.5t75 -116t27 -147q0 -79 -27 -146.5t-75.5 -116.5t-115 -76.5t-144.5 -27.5t-144.5 27.5t-115 76.5t-75.5 116.5t-27 146.5zM406 93q54 0 100 19.5t79 54.5t52 83t19 105t-19 105t-52 83 t-79 54.5t-100 19.5t-100 -19.5t-79 -54.5t-52 -83t-19 -105t19 -105t52 -83t79 -54.5t100 -19.5zM245 786l114 120h94l114 -120h-97l-59 70h-10l-59 -70h-97z"></glyph>
      <glyph glyph-name="Otilde" unicode="Õ" d="M406 722q79 0 145.5 -27.5t114.5 -76.5t75 -116t27 -147q0 -79 -27 -146.5t-75.5 -116.5t-115 -76.5t-144.5 -27.5t-144.5 27.5t-115 76.5t-75.5 116.5t-27 146.5q0 80 27 147t75 116t114.5 76.5t145.5 27.5zM156 355q0 -57 19 -105t52 -83t79 -54.5t100 -19.5t100 19.5 t79 54.5t52 83t19 105t-19 105t-52 83t-79 54.5t-100 19.5t-100 -19.5t-79 -54.5t-52 -83t-19 -105zM345 893q24 0 41 -8t30.5 -17t24.5 -17t23 -8t18 9t6 24v6.5t-1 7.5h70q1 -5 1 -10v-10q0 -46 -24 -72.5t-66 -26.5q-24 0 -41.5 8t-31 17t-24.5 17t-22 8t-18 -8t-7 -25 v-6.5t1 -7.5h-70q-1 5 -1 9v9q0 47 23.5 74t67.5 27z"></glyph>
      <glyph glyph-name="Odieresis" unicode="Ö" d="M44 355q0 80 27 147t75 116t114.5 76.5t145.5 27.5t145.5 -27.5t114.5 -76.5t75 -116t27 -147q0 -79 -27 -146.5t-75.5 -116.5t-115 -76.5t-144.5 -27.5t-144.5 27.5t-115 76.5t-75.5 116.5t-27 146.5zM406 93q54 0 100 19.5t79 54.5t52 83t19 105t-19 105t-52 83 t-79 54.5t-100 19.5t-100 -19.5t-79 -54.5t-52 -83t-19 -105t19 -105t52 -83t79 -54.5t100 -19.5zM437 887h106v-94h-106v94zM269 793v94h106v-94h-106z"></glyph>
      <glyph glyph-name="multiply" unicode="×" d="M146 318q34 34 51 41l-3 17q-13 2 -23 9t-30 27l-71 71l59 59l71 -71q20 -20 27 -30t9 -23l17 -3q7 17 41 51l76 76l59 -59l-76 -76q-34 -34 -51 -41l3 -17q13 -2 23 -9t30 -27l71 -71l-59 -59l-71 71q-20 20 -27 30t-9 23l-17 3q-7 -17 -41 -51l-76 -76l-59 59z"></glyph>
      <glyph glyph-name="Oslash" unicode="Ø" d="M406 722q99 0 177 -43l59 84l68 -47l-59 -84q55 -50 86 -120.5t31 -156.5q0 -79 -27 -146.5t-75.5 -116.5t-115 -76.5t-144.5 -27.5q-49 0 -93 11t-83 31l-57 -82l-68 48l57 81q-56 50 -87 121t-31 157q0 80 27 147t75 116t114.5 76.5t145.5 27.5zM226 169l295 421 q-26 13 -54.5 20t-60.5 7q-54 0 -100 -19.5t-79 -54.5t-52 -83t-19 -105t18.5 -104t51.5 -82zM406 93q54 0 100 19.5t79 54.5t52 83t19 105q0 56 -18.5 103t-50.5 82l-294 -421q50 -26 113 -26z"></glyph>
      <glyph glyph-name="Ugrave" unicode="Ù" d="M64 273v437h110v-434q0 -89 51 -136t136 -47t136 47t51 136v434h110v-437q0 -65 -20 -118t-58.5 -90t-93.5 -57t-125 -20t-125 20t-93 57t-58.5 90t-20.5 118zM213 936h119l77 -145h-77z"></glyph>
      <glyph glyph-name="Uacute" unicode="Ú" d="M174 710v-434q0 -89 51 -136t136 -47t136 47t51 136v434h110v-437q0 -65 -20 -118t-58.5 -90t-93.5 -57t-125 -20t-125 20t-93 57t-58.5 90t-20.5 118v437h110zM386 936h119l-119 -145h-77z"></glyph>
      <glyph glyph-name="Ucircumflex" unicode="Û" d="M64 273v437h110v-434q0 -89 51 -136t136 -47t136 47t51 136v434h110v-437q0 -65 -20 -118t-58.5 -90t-93.5 -57t-125 -20t-125 20t-93 57t-58.5 90t-20.5 118zM200 786l114 120h94l114 -120h-97l-59 70h-10l-59 -70h-97z"></glyph>
      <glyph glyph-name="Udieresis" unicode="Ü" d="M64 273v437h110v-434q0 -89 51 -136t136 -47t136 47t51 136v434h110v-437q0 -65 -20 -118t-58.5 -90t-93.5 -57t-125 -20t-125 20t-93 57t-58.5 90t-20.5 118zM392 887h106v-94h-106v94zM224 887h106v-94h-106v94z"></glyph>
      <glyph glyph-name="Yacute" unicode="Ý" d="M138 710l131 -243q13 -23 25 -55t16 -64h30q4 32 16 64t25 55l131 243h126l-258 -468v-242h-110v242l-258 468h126zM273 791l77 145h119l-119 -145h-77z"></glyph>
      <glyph glyph-name="Thorn" unicode="Þ" d="M74 0v710h110v-49q0 -32 -2 -51t-18 -36l11 -19q14 6 36 8t37 2h102q51 0 94.5 -12t75.5 -37t50 -63t18 -90t-18 -90t-50 -63t-75.5 -37t-94.5 -12h-102q-15 0 -37 2t-36 8l-11 -19q16 -17 18 -36t2 -51v-65h-110zM175 251q14 6 36 8t37 2h98q60 0 95 24t35 78t-35 78 t-95 24h-98q-15 0 -37 2t-36 8l-11 -19q16 -17 18 -42t2 -51t-2 -51t-18 -42z"></glyph>
      <glyph glyph-name="germandbls" unicode="ß" d="M64 498q0 51 16.5 92t46.5 70.5t72 45.5t93 16q48 0 87 -13t66.5 -37t43 -57t15.5 -73q0 -60 -36.5 -103.5t-100.5 -58.5v-19q79 -6 124.5 -49t45.5 -118q0 -98 -59 -152t-160 -54q-20 0 -43.5 3t-45.5 9l12 92q14 -5 31.5 -7t31.5 -2q60 0 92.5 31.5t32.5 88.5 q0 63 -35.5 90.5t-119.5 27.5h-24v92h24q55 0 88 33t33 82q0 47 -27 73t-77 26q-122 0 -122 -134v-493h-105v498z"></glyph>
      <glyph glyph-name="agrave" unicode="à" d="M42 137q0 35 12.5 62.5t35.5 47t55 29.5t70 10q50 0 80.5 -17.5t53.5 -54.5l15 1v55q0 41 -9.5 67t-26 40t-39.5 19t-50 5q-28 0 -48 -7t-33.5 -17.5t-21.5 -21t-11 -18.5l-80 61q11 24 32 42.5t48 31t58.5 18.5t63.5 6q102 0 162 -54.5t60 -156.5v-285h-97v67l-22 2 q-4 -15 -15 -29.5t-29 -26t-42.5 -18.5t-55.5 -7q-35 0 -65.5 10t-53 29.5t-35 47t-12.5 62.5zM146 137q0 -29 22.5 -46.5t64.5 -17.5q20 0 40.5 5t38.5 13.5t32 20.5t21 25q-7 14 -21 25.5t-32 20t-38.5 13.5t-40.5 5q-42 0 -64.5 -17.5t-22.5 -46.5zM102 710h119l77 -145 h-77z"></glyph>
      <glyph glyph-name="aacute" unicode="á" d="M42 137q0 35 12.5 62.5t35.5 47t55 29.5t70 10q50 0 80.5 -17.5t53.5 -54.5l15 1v55q0 41 -9.5 67t-26 40t-39.5 19t-50 5q-28 0 -48 -7t-33.5 -17.5t-21.5 -21t-11 -18.5l-80 61q11 24 32 42.5t48 31t58.5 18.5t63.5 6q102 0 162 -54.5t60 -156.5v-285h-97v67l-22 2 q-4 -15 -15 -29.5t-29 -26t-42.5 -18.5t-55.5 -7q-35 0 -65.5 10t-53 29.5t-35 47t-12.5 62.5zM146 137q0 -29 22.5 -46.5t64.5 -17.5q20 0 40.5 5t38.5 13.5t32 20.5t21 25q-7 14 -21 25.5t-32 20t-38.5 13.5t-40.5 5q-42 0 -64.5 -17.5t-22.5 -46.5zM275 710h119 l-119 -145h-77z"></glyph>
      <glyph glyph-name="acircumflex" unicode="â" d="M42 137q0 35 12.5 62.5t35.5 47t55 29.5t70 10q50 0 80.5 -17.5t53.5 -54.5l15 1v55q0 41 -9.5 67t-26 40t-39.5 19t-50 5q-28 0 -48 -7t-33.5 -17.5t-21.5 -21t-11 -18.5l-80 61q11 24 32 42.5t48 31t58.5 18.5t63.5 6q102 0 162 -54.5t60 -156.5v-285h-97v67l-22 2 q-4 -15 -15 -29.5t-29 -26t-42.5 -18.5t-55.5 -7q-35 0 -65.5 10t-53 29.5t-35 47t-12.5 62.5zM233 73q20 0 40.5 5t38.5 13.5t32 20.5t21 25q-7 14 -21 25.5t-32 20t-38.5 13.5t-40.5 5q-42 0 -64.5 -17.5t-22.5 -46.5t22.5 -46.5t64.5 -17.5zM203 680h94l114 -120h-97 l-59 70h-10l-59 -70h-97z"></glyph>
      <glyph glyph-name="atilde" unicode="ã" d="M215 286q50 0 80.5 -17.5t53.5 -54.5l15 1v55q0 41 -9.5 67t-26 40t-39.5 19t-50 5q-28 0 -48 -7t-33.5 -17.5t-21.5 -21t-11 -18.5l-80 61q11 24 32 42.5t48 31t58.5 18.5t63.5 6q102 0 162 -54.5t60 -156.5v-285h-97v67l-22 2q-4 -15 -15 -29.5t-29 -26t-42.5 -18.5 t-55.5 -7q-35 0 -65.5 10t-53 29.5t-35 47t-12.5 62.5t12.5 62.5t35.5 47t55 29.5t70 10zM98 566q0 47 23.5 74t67.5 27q24 0 41 -8t30.5 -17t24.5 -17t23 -8t18 9t6 24v6.5t-1 7.5h70q1 -5 1 -10v-10q0 -46 -24 -72.5t-66 -26.5q-24 0 -41.5 8t-31 17t-24.5 17t-22 8 t-18 -8t-7 -25v-6.5t1 -7.5h-70q-1 5 -1 9v9zM146 137q0 -29 22.5 -46.5t64.5 -17.5q20 0 40.5 5t38.5 13.5t32 20.5t21 25q-7 14 -21 25.5t-32 20t-38.5 13.5t-40.5 5q-42 0 -64.5 -17.5t-22.5 -46.5z"></glyph>
      <glyph glyph-name="adieresis" unicode="ä" d="M42 137q0 35 12.5 62.5t35.5 47t55 29.5t70 10q50 0 80.5 -17.5t53.5 -54.5l15 1v55q0 41 -9.5 67t-26 40t-39.5 19t-50 5q-28 0 -48 -7t-33.5 -17.5t-21.5 -21t-11 -18.5l-80 61q11 24 32 42.5t48 31t58.5 18.5t63.5 6q102 0 162 -54.5t60 -156.5v-285h-97v67l-22 2 q-4 -15 -15 -29.5t-29 -26t-42.5 -18.5t-55.5 -7q-35 0 -65.5 10t-53 29.5t-35 47t-12.5 62.5zM233 73q20 0 40.5 5t38.5 13.5t32 20.5t21 25q-7 14 -21 25.5t-32 20t-38.5 13.5t-40.5 5q-42 0 -64.5 -17.5t-22.5 -46.5t22.5 -46.5t64.5 -17.5zM281 661h106v-94h-106v94z M113 661h106v-94h-106v94z"></glyph>
      <glyph glyph-name="aring" unicode="å" d="M42 137q0 35 12.5 62.5t35.5 47t55 29.5t70 10q50 0 80.5 -17.5t53.5 -54.5l15 1v55q0 41 -9.5 67t-26 40t-39.5 19t-50 5q-28 0 -48 -7t-33.5 -17.5t-21.5 -21t-11 -18.5l-80 61q11 24 32 42.5t48 31t58.5 18.5t63.5 6q102 0 162 -54.5t60 -156.5v-285h-97v67l-22 2 q-4 -15 -15 -29.5t-29 -26t-42.5 -18.5t-55.5 -7q-35 0 -65.5 10t-53 29.5t-35 47t-12.5 62.5zM157 627q0 39 27 66t66 27t66 -27t27 -66t-27 -66t-66 -27t-66 27t-27 66zM146 137q0 -29 22.5 -46.5t64.5 -17.5q20 0 40.5 5t38.5 13.5t32 20.5t21 25q-7 14 -21 25.5t-32 20 t-38.5 13.5t-40.5 5q-42 0 -64.5 -17.5t-22.5 -46.5zM250 586q17 0 29 11.5t12 29.5t-12 29.5t-29 11.5t-29 -11.5t-12 -29.5t12 -29.5t29 -11.5z"></glyph>
      <glyph glyph-name="ae" unicode="æ" d="M42 137q0 35 12.5 62.5t35.5 47t55 29.5t70 10q50 0 83.5 -20.5t50.5 -51.5l15 1v45q0 41 -9.5 68.5t-26 43.5t-39.5 22.5t-50 6.5q-28 0 -48 -7t-33.5 -17.5t-21.5 -21t-11 -18.5l-80 61q11 24 32 42.5t48 31t58.5 18.5t63.5 6q62 0 107 -20.5t68 -63.5h10 q26 37 70 60.5t107 23.5q62 0 107.5 -22t74 -60.5t39.5 -89t3 -107.5h-366q8 -61 51 -98t110 -37q28 0 52.5 7t44.5 17t35 22.5t24 22.5l51 -79q-10 -9 -27.5 -23.5t-43 -28t-60.5 -23t-82 -9.5q-153 0 -214 106h-15q-10 -19 -25 -38t-37.5 -34t-52.5 -24.5t-70 -9.5 q-35 0 -65.5 10t-53 29.5t-35 47t-12.5 62.5zM483 273q7 5 40.5 12.5t80.5 7.5q29 0 49.5 -2t33.5 -5t20.5 -6t10.5 -6l14 5q0 32 -10 56.5t-27 41t-40 25t-49 8.5q-21 0 -44.5 -8t-43 -24t-33 -40.5t-16.5 -58.5zM149 137q0 -29 22 -46.5t64 -17.5q20 0 40 5t37.5 13.5 t31.5 20.5t21 25q-7 14 -21 25.5t-31.5 20t-37.5 13.5t-40 5q-42 0 -64 -17.5t-22 -46.5z"></glyph>
      <glyph glyph-name="ccedilla" unicode="ç" d="M302 496q55 0 102.5 -19.5t75.5 -53.5l-68 -75q-18 24 -49.5 39t-68.5 15q-69 0 -109 -42t-40 -112q0 -37 11.5 -67.5t32.5 -52.5t50 -34t64 -12q48 0 88 17.5t62 46.5l42 -82q-31 -32 -80 -52.5t-102 -23.5l-18 -47l5 -4q17 6 35 6q33 0 60 -19t27 -58q0 -43 -36 -70.5 t-92 -27.5q-26 0 -51 7t-43 21l31 59q8 -8 25.5 -15t37.5 -7q51 0 51 34q0 16 -12.5 23.5t-30.5 7.5q-17 0 -34 -6l-42 26l31 73q-101 12 -159 77.5t-58 170.5q0 57 19 104.5t53.5 81t83 52.5t106.5 19z"></glyph>
      <glyph glyph-name="egrave" unicode="è" d="M40 239q0 51 16.5 97.5t48 82t77.5 56.5t105 21q62 0 107.5 -22t74 -60.5t39.5 -89t3 -107.5h-366q9 -61 51.5 -98t109.5 -37q28 0 52.5 7t44.5 17t35 22.5t24 22.5l51 -79q-10 -9 -27.5 -23.5t-43 -28t-60.5 -23t-82 -9.5q-61 0 -109 18.5t-81.5 51.5t-51.5 79.5 t-18 101.5zM161 273q7 5 40.5 12.5t80.5 7.5q29 0 49.5 -2t33.5 -5t20.5 -6t10.5 -6l14 5q0 32 -10 56.5t-27 41t-40 25t-49 8.5q-21 0 -44.5 -8t-43 -24t-33 -40.5t-16.5 -58.5zM136 710h119l77 -145h-77z"></glyph>
      <glyph glyph-name="eacute" unicode="é" d="M40 239q0 51 16.5 97.5t48 82t77.5 56.5t105 21q62 0 107.5 -22t74 -60.5t39.5 -89t3 -107.5h-366q9 -61 51.5 -98t109.5 -37q28 0 52.5 7t44.5 17t35 22.5t24 22.5l51 -79q-10 -9 -27.5 -23.5t-43 -28t-60.5 -23t-82 -9.5q-61 0 -109 18.5t-81.5 51.5t-51.5 79.5 t-18 101.5zM161 273q7 5 40.5 12.5t80.5 7.5q29 0 49.5 -2t33.5 -5t20.5 -6t10.5 -6l14 5q0 32 -10 56.5t-27 41t-40 25t-49 8.5q-21 0 -44.5 -8t-43 -24t-33 -40.5t-16.5 -58.5zM309 710h119l-119 -145h-77z"></glyph>
      <glyph glyph-name="ecircumflex" unicode="ê" d="M40 239q0 51 16.5 97.5t48 82t77.5 56.5t105 21q62 0 107.5 -22t74 -60.5t39.5 -89t3 -107.5h-366q9 -61 51.5 -98t109.5 -37q28 0 52.5 7t44.5 17t35 22.5t24 22.5l51 -79q-10 -9 -27.5 -23.5t-43 -28t-60.5 -23t-82 -9.5q-61 0 -109 18.5t-81.5 51.5t-51.5 79.5 t-18 101.5zM147 279l14 -6q7 5 40.5 12.5t80.5 7.5q29 0 49.5 -2t33.5 -5t20.5 -6t10.5 -6l14 5q0 32 -10 56.5t-27 41t-40 25t-49 8.5q-21 0 -44.5 -8t-43 -24t-33 -40.5t-16.5 -58.5zM237 680h94l114 -120h-97l-59 70h-10l-59 -70h-97z"></glyph>
      <glyph glyph-name="edieresis" unicode="ë" d="M40 239q0 51 16.5 97.5t48 82t77.5 56.5t105 21q62 0 107.5 -22t74 -60.5t39.5 -89t3 -107.5h-366q9 -61 51.5 -98t109.5 -37q28 0 52.5 7t44.5 17t35 22.5t24 22.5l51 -79q-10 -9 -27.5 -23.5t-43 -28t-60.5 -23t-82 -9.5q-61 0 -109 18.5t-81.5 51.5t-51.5 79.5 t-18 101.5zM147 279l14 -6q7 5 40.5 12.5t80.5 7.5q29 0 49.5 -2t33.5 -5t20.5 -6t10.5 -6l14 5q0 32 -10 56.5t-27 41t-40 25t-49 8.5q-21 0 -44.5 -8t-43 -24t-33 -40.5t-16.5 -58.5zM421 661v-94h-106v94h106zM147 661h106v-94h-106v94z"></glyph>
      <glyph glyph-name="igrave" unicode="ì" d="M88 565l-119 145h119l77 -145h-77zM64 0v484h105v-484h-105z"></glyph>
      <glyph glyph-name="iacute" unicode="í" d="M142 710h119l-119 -145h-77zM64 0v484h105v-484h-105z"></glyph>
      <glyph glyph-name="icircumflex" unicode="î" d="M169 484v-484h-105v484h105zM-34 560l104 120h94l104 -120h-97l-49 70h-10l-49 -70h-97z"></glyph>
      <glyph glyph-name="idieresis" unicode="ï" d="M64 484h105v-484h-105v484zM143 567v94h106v-94h-106zM91 661v-94h-106v94h106z"></glyph>
      <glyph glyph-name="eth" unicode="ð" d="M40 237q0 56 18.5 101.5t51.5 78.5t78 51t98 18q37 0 73.5 -20.5t62.5 -68.5h28q-13 61 -46.5 106t-78.5 76l-30 -53l-51 28l31 55q-46 22 -88 31l34 96q55 -14 104 -39l32 56l50 -27l-33 -59q43 -29 78 -67.5t60.5 -84.5t39.5 -98.5t14 -110.5q0 -83 -21 -143t-58 -99 t-88 -57.5t-110 -18.5q-57 0 -103 18t-78.5 51t-50 79t-17.5 101zM143 237q0 -71 42.5 -113t110.5 -42t110.5 42t42.5 113t-42.5 113t-110.5 42t-110.5 -42t-42.5 -113z"></glyph>
      <glyph glyph-name="ntilde" unicode="ñ" d="M169 484l-5 -89h25q5 17 16 35t29.5 32.5t45 24t61.5 9.5q81 0 128 -53.5t47 -150.5v-292h-105v259q0 74 -28.5 109.5t-90.5 35.5q-65 0 -94 -43.5t-29 -111.5v-249h-105v484h105zM147 566q0 47 23.5 74t67.5 27q24 0 41 -8t30.5 -17t24.5 -17t23 -8t18 9t6 24v6.5 t-1 7.5h70q1 -5 1 -10v-10q0 -46 -24 -72.5t-66 -26.5q-24 0 -41.5 8t-31 17t-24.5 17t-22 8t-18 -8t-7 -25v-6.5t1 -7.5h-70q-1 5 -1 9v9z"></glyph>
      <glyph glyph-name="ograve" unicode="ò" d="M40 242q0 56 18.5 102.5t52.5 80t81 52.5t104 19t104 -19t81 -52.5t52.5 -80t18.5 -102.5q0 -55 -18.5 -102t-52.5 -80.5t-81 -52.5t-104 -19t-104 19t-81 52.5t-52.5 80.5t-18.5 102zM296 82q34 0 62 12t48.5 33t31.5 50.5t11 64.5t-11 64.5t-31.5 50.5t-48.5 33t-62 12 t-62 -12t-48 -33t-31.5 -50.5t-11.5 -64.5t11.5 -64.5t31.5 -50.5t48 -33t62 -12zM267 710l77 -145h-77l-119 145h119z"></glyph>
      <glyph glyph-name="oacute" unicode="ó" d="M40 242q0 56 18.5 102.5t52.5 80t81 52.5t104 19t104 -19t81 -52.5t52.5 -80t18.5 -102.5q0 -55 -18.5 -102t-52.5 -80.5t-81 -52.5t-104 -19t-104 19t-81 52.5t-52.5 80.5t-18.5 102zM296 82q34 0 62 12t48.5 33t31.5 50.5t11 64.5t-11 64.5t-31.5 50.5t-48.5 33t-62 12 t-62 -12t-48 -33t-31.5 -50.5t-11.5 -64.5t11.5 -64.5t31.5 -50.5t48 -33t62 -12zM244 565l77 145h119l-119 -145h-77z"></glyph>
      <glyph glyph-name="ocircumflex" unicode="ô" d="M40 242q0 56 18.5 102.5t52.5 80t81 52.5t104 19t104 -19t81 -52.5t52.5 -80t18.5 -102.5q0 -55 -18.5 -102t-52.5 -80.5t-81 -52.5t-104 -19t-104 19t-81 52.5t-52.5 80.5t-18.5 102zM296 82q34 0 62 12t48.5 33t31.5 50.5t11 64.5t-11 64.5t-31.5 50.5t-48.5 33t-62 12 t-62 -12t-48 -33t-31.5 -50.5t-11.5 -64.5t11.5 -64.5t31.5 -50.5t48 -33t62 -12zM135 560l114 120h94l114 -120h-97l-59 70h-10l-59 -70h-97z"></glyph>
      <glyph glyph-name="otilde" unicode="õ" d="M296 496q57 0 104 -19t81 -52.5t52.5 -80t18.5 -102.5q0 -55 -18.5 -102t-52.5 -80.5t-81 -52.5t-104 -19t-104 19t-81 52.5t-52.5 80.5t-18.5 102q0 56 18.5 102.5t52.5 80t81 52.5t104 19zM143 242q0 -35 11.5 -64.5t31.5 -50.5t48 -33t62 -12t62 12t48.5 33t31.5 50.5 t11 64.5t-11 64.5t-31.5 50.5t-48.5 33t-62 12t-62 -12t-48 -33t-31.5 -50.5t-11.5 -64.5zM235 667q24 0 41 -8t30.5 -17t24.5 -17t23 -8t18 9t6 24v6.5t-1 7.5h70q1 -5 1 -10v-10q0 -46 -24 -72.5t-66 -26.5q-24 0 -41.5 8t-31 17t-24.5 17t-22 8t-18 -8t-7 -25v-6.5 t1 -7.5h-70q-1 5 -1 9v9q0 47 23.5 74t67.5 27z"></glyph>
      <glyph glyph-name="odieresis" unicode="ö" d="M40 242q0 56 18.5 102.5t52.5 80t81 52.5t104 19t104 -19t81 -52.5t52.5 -80t18.5 -102.5q0 -55 -18.5 -102t-52.5 -80.5t-81 -52.5t-104 -19t-104 19t-81 52.5t-52.5 80.5t-18.5 102zM296 82q34 0 62 12t48.5 33t31.5 50.5t11 64.5t-11 64.5t-31.5 50.5t-48.5 33t-62 12 t-62 -12t-48 -33t-31.5 -50.5t-11.5 -64.5t11.5 -64.5t31.5 -50.5t48 -33t62 -12zM327 661h106v-94h-106v94zM159 567v94h106v-94h-106z"></glyph>
      <glyph glyph-name="divide" unicode="÷" d="M485 404v-83h-425v83h425zM325 571v-107h-107v107h107zM218 154v107h107v-107h-107z"></glyph>
      <glyph glyph-name="oslash" unicode="ø" d="M296 496q39 0 73 -9l26 56l70 -31l-26 -55q54 -32 83.5 -88t29.5 -127q0 -55 -18.5 -102t-52.5 -80.5t-81 -52.5t-104 -19q-39 0 -72 9l-26 -56l-70 32l25 53q-53 33 -83 88.5t-30 127.5q0 56 18.5 102.5t52.5 80t81 52.5t104 19zM196 117l132 282q-15 3 -32 3 q-34 0 -62 -12t-48 -33t-31.5 -50.5t-11.5 -64.5q0 -39 14 -71t39 -54zM296 82q34 0 62 12t48.5 33t31.5 50.5t11 64.5q0 39 -13.5 71t-38.5 53l-132 -281q15 -3 31 -3z"></glyph>
      <glyph glyph-name="ugrave" unicode="ù" d="M168 484v-269q0 -132 119 -132q123 0 123 132v269h105v-484h-105l5 89h-25q-5 -17 -16 -35t-29.5 -32.5t-45 -24t-61.5 -9.5q-83 0 -129 52.5t-46 146.5v297h105zM260 710l77 -145h-77l-119 145h119z"></glyph>
      <glyph glyph-name="uacute" unicode="ú" d="M168 484v-269q0 -132 119 -132q123 0 123 132v269h105v-484h-105l5 89h-25q-5 -17 -16 -35t-29.5 -32.5t-45 -24t-61.5 -9.5q-83 0 -129 52.5t-46 146.5v297h105zM314 710h119l-119 -145h-77z"></glyph>
      <glyph glyph-name="ucircumflex" unicode="û" d="M63 484h105v-269q0 -132 119 -132q123 0 123 132v269h105v-484h-105l5 89h-25q-5 -17 -16 -35t-29.5 -32.5t-45 -24t-61.5 -9.5q-83 0 -129 52.5t-46 146.5v297zM128 560l114 120h94l114 -120h-97l-59 70h-10l-59 -70h-97z"></glyph>
      <glyph glyph-name="udieresis" unicode="ü" d="M168 484v-269q0 -132 119 -132q123 0 123 132v269h105v-484h-105l5 89h-25q-5 -17 -16 -35t-29.5 -32.5t-45 -24t-61.5 -9.5q-83 0 -129 52.5t-46 146.5v297h105zM320 661h106v-94h-106v94zM258 661v-94h-106v94h106z"></glyph>
      <glyph glyph-name="yacute" unicode="ý" d="M27 -84q6 -6 14.5 -9.5t17.5 -5.5t17 -3t13 -1q67 0 120 123l-199 464h115l77 -197q20 -50 31.5 -94t13.5 -74h25q2 30 13.5 74t31.5 94l77 197h114l-210 -488q-25 -58 -50 -96t-50.5 -60t-52 -31t-54.5 -9q-22 0 -45 5t-48 18zM205 565l77 145h119l-119 -145h-77z"></glyph>
      <glyph glyph-name="thorn" unicode="þ" d="M169 710v-226l-10 -88h25q15 42 54.5 71t98.5 29q47 0 89 -17t73.5 -49.5t50 -80t18.5 -107.5t-18.5 -107.5t-50 -80t-73.5 -49.5t-89 -17q-59 0 -98.5 29t-54.5 71h-25l10 -91v-190h-105v903h105zM168 242q0 -34 10.5 -63t30 -50t47 -32.5t60.5 -11.5t60 11.5t46.5 32.5 t30 50t10.5 63t-10.5 63t-30 50t-46.5 32.5t-60 11.5t-60.5 -11.5t-47 -32.5t-30 -50t-10.5 -63z"></glyph>
      <glyph glyph-name="ydieresis" unicode="ÿ" d="M27 -84q6 -6 14.5 -9.5t17.5 -5.5t17 -3t13 -1q67 0 120 123l-199 464h115l77 -197q20 -50 31.5 -94t13.5 -74h25q2 30 13.5 74t31.5 94l77 197h114l-210 -488q-25 -58 -50 -96t-50.5 -60t-52 -31t-54.5 -9q-22 0 -45 5t-48 18zM394 661v-94h-106v94h106zM120 661h106 v-94h-106v94z"></glyph>
      <glyph glyph-name="Amacron" unicode="Ā" d="M275 710h138l261 -710h-117l-46 125q-4 10 -4 21t5 22l-14 16q-15 -5 -32 -6t-52 -1h-140q-35 0 -52 1t-32 6l-14 -16q5 -11 5 -22t-4 -21l-46 -125h-117zM223 279l13 -17q15 5 29.5 6.5t33.5 1.5h90q19 0 33.5 -1.5t29.5 -6.5l13 17q-5 7 -12.5 19t-12.5 26l-40 108 q-13 35 -25.5 81.5t-18.5 109.5h-24q-6 -63 -18.5 -109.5t-25.5 -81.5l-40 -108q-5 -14 -12.5 -26t-12.5 -19zM197 809v75h295v-75h-295z"></glyph>
      <glyph glyph-name="amacron" unicode="ā" d="M42 137q0 35 12.5 62.5t35.5 47t55 29.5t70 10q50 0 80.5 -17.5t53.5 -54.5l15 1v55q0 41 -9.5 67t-26 40t-39.5 19t-50 5q-28 0 -48 -7t-33.5 -17.5t-21.5 -21t-11 -18.5l-80 61q11 24 32 42.5t48 31t58.5 18.5t63.5 6q102 0 162 -54.5t60 -156.5v-285h-97v67l-22 2 q-4 -15 -15 -29.5t-29 -26t-42.5 -18.5t-55.5 -7q-35 0 -65.5 10t-53 29.5t-35 47t-12.5 62.5zM146 137q0 -29 22.5 -46.5t64.5 -17.5q20 0 40.5 5t38.5 13.5t32 20.5t21 25q-7 14 -21 25.5t-32 20t-38.5 13.5t-40.5 5q-42 0 -64.5 -17.5t-22.5 -46.5zM102 658h295v-75h-295 v75z"></glyph>
      <glyph glyph-name="Abreve" unicode="Ă" d="M14 0l261 710h138l261 -710h-117l-46 125q-4 10 -4 21t5 22l-14 16q-15 -5 -32 -6t-52 -1h-140q-35 0 -52 1t-32 6l-14 -16q5 -11 5 -22t-4 -21l-46 -125h-117zM223 279l13 -17q15 5 29.5 6.5t33.5 1.5h90q19 0 33.5 -1.5t29.5 -6.5l13 17q-5 7 -12.5 19t-12.5 26 l-40 108q-13 35 -25.5 81.5t-18.5 109.5h-24q-6 -63 -18.5 -109.5t-25.5 -81.5l-40 -108q-5 -14 -12.5 -26t-12.5 -19zM213 928h75q0 -32 15.5 -51t41.5 -19t41.5 19t15.5 51h75q0 -63 -36 -100.5t-96 -37.5t-96 37.5t-36 100.5z"></glyph>
      <glyph glyph-name="abreve" unicode="ă" d="M42 137q0 35 12.5 62.5t35.5 47t55 29.5t70 10q50 0 80.5 -17.5t53.5 -54.5l15 1v55q0 41 -9.5 67t-26 40t-39.5 19t-50 5q-28 0 -48 -7t-33.5 -17.5t-21.5 -21t-11 -18.5l-80 61q11 24 32 42.5t48 31t58.5 18.5t63.5 6q102 0 162 -54.5t60 -156.5v-285h-97v67l-22 2 q-4 -15 -15 -29.5t-29 -26t-42.5 -18.5t-55.5 -7q-35 0 -65.5 10t-53 29.5t-35 47t-12.5 62.5zM118 702h75q0 -32 15.5 -51t41.5 -19t41.5 19t15.5 51h75q0 -63 -36 -100.5t-96 -37.5t-96 37.5t-36 100.5zM233 73q20 0 40.5 5t38.5 13.5t32 20.5t21 25q-7 14 -21 25.5 t-32 20t-38.5 13.5t-40.5 5q-42 0 -64.5 -17.5t-22.5 -46.5t22.5 -46.5t64.5 -17.5z"></glyph>
      <glyph glyph-name="Aogonek" unicode="Ą" d="M14 0l261 710h138l261 -710q-29 -17 -45 -41.5t-16 -45.5q0 -17 11 -29t35 -12q19 0 38 8l11 -70q-16 -11 -36 -15.5t-41 -4.5q-47 0 -73 26.5t-26 64.5q0 30 21.5 62.5t63.5 56.5h-60l-46 125q-4 10 -4 21t5 22l-14 16q-15 -5 -32 -6t-52 -1h-140q-35 0 -52 1t-32 6 l-14 -16q5 -11 5 -22t-4 -21l-46 -125h-117zM236 262q15 5 29.5 6.5t33.5 1.5h90q19 0 33.5 -1.5t29.5 -6.5l13 17q-5 7 -12.5 19t-12.5 26l-40 108q-13 35 -25.5 81.5t-18.5 109.5h-24q-6 -63 -18.5 -109.5t-25.5 -81.5l-40 -108q-5 -14 -12.5 -26t-12.5 -19z"></glyph>
      <glyph glyph-name="aogonek" unicode="ą" d="M215 286q50 0 80.5 -17.5t53.5 -54.5l15 1v55q0 41 -9.5 67t-26 40t-39.5 19t-50 5q-28 0 -48 -7t-33.5 -17.5t-21.5 -21t-11 -18.5l-80 61q11 24 32 42.5t48 31t58.5 18.5t63.5 6q102 0 162 -54.5t60 -156.5v-285q-29 -17 -45 -41.5t-16 -45.5q0 -17 11 -29t35 -12 q19 0 38 8l11 -70q-16 -11 -36 -15.5t-41 -4.5q-47 0 -73 26.5t-26 64.5q0 30 21.5 62.5t63.5 56.5h-40v67l-22 2q-4 -15 -15 -29.5t-29 -26t-42.5 -18.5t-55.5 -7q-35 0 -65.5 10t-53 29.5t-35 47t-12.5 62.5t12.5 62.5t35.5 47t55 29.5t70 10zM233 73q20 0 40.5 5 t38.5 13.5t32 20.5t21 25q-7 14 -21 25.5t-32 20t-38.5 13.5t-40.5 5q-42 0 -64.5 -17.5t-22.5 -46.5t22.5 -46.5t64.5 -17.5z"></glyph>
      <glyph glyph-name="Cacute" unicode="Ć" d="M44 355q0 85 29.5 153t80 115.5t118 73t144.5 25.5q94 0 167 -34t119 -95l-86 -75q-35 47 -84 73t-115 26q-58 0 -106 -19.5t-82.5 -54t-53 -83t-18.5 -105.5q0 -59 18 -107t51 -82.5t80.5 -53.5t106.5 -19q36 0 70.5 9t64.5 24t55 34t41 40l61 -90q-14 -23 -43 -45 t-68 -39t-85.5 -27.5t-95.5 -10.5q-80 0 -147.5 24.5t-117 71.5t-77 115t-27.5 156zM430 936h119l-119 -145h-77z"></glyph>
      <glyph glyph-name="cacute" unicode="ć" d="M40 239q0 57 19 104.5t53.5 81t83 52.5t106.5 19q55 0 102.5 -19.5t75.5 -53.5l-68 -75q-18 24 -49.5 39t-68.5 15q-69 0 -109 -42t-40 -112q0 -37 11.5 -67.5t32.5 -52.5t50 -34t64 -12q48 0 88 17.5t62 46.5l42 -82q-33 -35 -86 -55.5t-109 -20.5q-60 0 -108 17.5 t-81.5 50t-52 79t-18.5 104.5zM237 565l77 145h119l-119 -145h-77z"></glyph>
      <glyph glyph-name="Ccircumflex" unicode="Ĉ" d="M44 355q0 85 29.5 153t80 115.5t118 73t144.5 25.5q94 0 167 -34t119 -95l-86 -75q-35 47 -84 73t-115 26q-58 0 -106 -19.5t-82.5 -54t-53 -83t-18.5 -105.5q0 -59 18 -107t51 -82.5t80.5 -53.5t106.5 -19q36 0 70.5 9t64.5 24t55 34t41 40l61 -90q-14 -23 -43 -45 t-68 -39t-85.5 -27.5t-95.5 -10.5q-80 0 -147.5 24.5t-117 71.5t-77 115t-27.5 156zM244 786l114 120h94l114 -120h-97l-59 70h-10l-59 -70h-97z"></glyph>
      <glyph glyph-name="ccircumflex" unicode="ĉ" d="M40 239q0 57 19 104.5t53.5 81t83 52.5t106.5 19q55 0 102.5 -19.5t75.5 -53.5l-68 -75q-18 24 -49.5 39t-68.5 15q-69 0 -109 -42t-40 -112q0 -37 11.5 -67.5t32.5 -52.5t50 -34t64 -12q48 0 88 17.5t62 46.5l42 -82q-33 -35 -86 -55.5t-109 -20.5q-60 0 -108 17.5 t-81.5 50t-52 79t-18.5 104.5zM242 680h94l114 -120h-97l-59 70h-10l-59 -70h-97z"></glyph>
      <glyph glyph-name="Cdotaccent" unicode="Ċ" d="M44 355q0 85 29.5 153t80 115.5t118 73t144.5 25.5q94 0 167 -34t119 -95l-86 -75q-35 47 -84 73t-115 26q-58 0 -106 -19.5t-82.5 -54t-53 -83t-18.5 -105.5q0 -59 18 -107t51 -82.5t80.5 -53.5t106.5 -19q36 0 70.5 9t64.5 24t55 34t41 40l61 -90q-14 -23 -43 -45 t-68 -39t-85.5 -27.5t-95.5 -10.5q-80 0 -147.5 24.5t-117 71.5t-77 115t-27.5 156zM462 890v-100h-115v100h115z"></glyph>
      <glyph glyph-name="cdotaccent" unicode="ċ" d="M40 239q0 57 19 104.5t53.5 81t83 52.5t106.5 19q55 0 102.5 -19.5t75.5 -53.5l-68 -75q-18 24 -49.5 39t-68.5 15q-69 0 -109 -42t-40 -112q0 -37 11.5 -67.5t32.5 -52.5t50 -34t64 -12q48 0 88 17.5t62 46.5l42 -82q-33 -35 -86 -55.5t-109 -20.5q-60 0 -108 17.5 t-81.5 50t-52 79t-18.5 104.5zM231 564v100h115v-100h-115z"></glyph>
      <glyph glyph-name="Ccaron" unicode="Č" d="M44 355q0 85 29.5 153t80 115.5t118 73t144.5 25.5q94 0 167 -34t119 -95l-86 -75q-35 47 -84 73t-115 26q-58 0 -106 -19.5t-82.5 -54t-53 -83t-18.5 -105.5q0 -59 18 -107t51 -82.5t80.5 -53.5t106.5 -19q36 0 70.5 9t64.5 24t55 34t41 40l61 -90q-14 -23 -43 -45 t-68 -39t-85.5 -27.5t-95.5 -10.5q-80 0 -147.5 24.5t-117 71.5t-77 115t-27.5 156zM341 906l59 -70h10l59 70h97l-114 -120h-94l-114 120h97z"></glyph>
      <glyph glyph-name="ccaron" unicode="č" d="M40 239q0 57 19 104.5t53.5 81t83 52.5t106.5 19q55 0 102.5 -19.5t75.5 -53.5l-68 -75q-18 24 -49.5 39t-68.5 15q-69 0 -109 -42t-40 -112q0 -37 11.5 -67.5t32.5 -52.5t50 -34t64 -12q48 0 88 17.5t62 46.5l42 -82q-33 -35 -86 -55.5t-109 -20.5q-60 0 -108 17.5 t-81.5 50t-52 79t-18.5 104.5zM225 680l59 -70h10l59 70h97l-114 -120h-94l-114 120h97z"></glyph>
      <glyph glyph-name="Dcaron" unicode="Ď" d="M334 710q85 0 151 -27t111.5 -75t69 -114t23.5 -144q0 -74 -24 -138t-70 -111t-112 -74t-149 -27h-262v710h262zM163 93q7 3 18 5t23.5 3t23.5 1.5t18 0.5h88q58 0 103 19.5t76 53.5t47 78.5t16 95.5q0 56 -15.5 103t-46.5 81.5t-76 53.5t-104 19h-88q-7 0 -18 0.5 t-23.5 1.5t-23.5 3t-18 5l-11 -19q16 -17 23 -52.5t7 -73.5v-234q0 -38 -7 -73.5t-23 -52.5zM254 906l59 -70h10l59 70h97l-114 -120h-94l-114 120h97z"></glyph>
      <glyph glyph-name="dcaron" unicode="ď" d="M40 242q0 60 18.5 107.5t50 80t73.5 49.5t89 17q59 0 98.5 -29t54.5 -71h25l-10 91v223h105v-710h-105l10 88h-25q-15 -42 -54.5 -71t-98.5 -29q-47 0 -89 17t-73.5 49.5t-50 80t-18.5 107.5zM145 242q0 -34 10.5 -63t30 -50t46.5 -32.5t60 -11.5t60.5 11.5t47 32.5 t30 50t10.5 63t-10.5 63t-30 50t-47 32.5t-60.5 11.5t-60 -11.5t-46.5 -32.5t-30 -50t-10.5 -63zM607 629v101h101v-101l-55 -96h-40l23 66q2 5 5.5 12t11.5 15l-8 10q-13 -7 -23 -7h-15z"></glyph>
      <glyph glyph-name="Dcroat" unicode="Đ" d="M72 404v306h262q85 0 151 -27t111.5 -75t69 -114t23.5 -144q0 -74 -24 -138t-70 -111t-112 -74t-149 -27h-262v320h-72v84h72zM163 93q7 3 18 5t23.5 3t23.5 1.5t18 0.5h88q58 0 103 19.5t76 53.5t47 78.5t16 95.5q0 56 -15.5 103t-46.5 81.5t-76 53.5t-104 19h-88 q-7 0 -18 0.5t-23.5 1.5t-23.5 3t-18 5l-11 -19q16 -17 23 -52.5t7 -73.5v-68h192v-84h-192v-82q0 -38 -7 -73.5t-23 -52.5z"></glyph>
      <glyph glyph-name="dcroat" unicode="đ" d="M271 496q59 0 98.5 -29t54.5 -71h25l-10 91v89h-128v69h128v65h105v-65h64v-69h-64v-576h-105l10 88h-25q-15 -42 -54.5 -71t-98.5 -29q-47 0 -89 17t-73.5 49.5t-50 80t-18.5 107.5t18.5 107.5t50 80t73.5 49.5t89 17zM145 242q0 -34 10.5 -63t30 -50t46.5 -32.5 t60 -11.5t60.5 11.5t47 32.5t30 50t10.5 63t-10.5 63t-30 50t-47 32.5t-60.5 11.5t-60 -11.5t-46.5 -32.5t-30 -50t-10.5 -63z"></glyph>
      <glyph glyph-name="Emacron" unicode="Ē" d="M74 710h495v-105h-321q-14 0 -36.5 2t-36.5 8l-11 -19q8 -9 12 -16.5t6 -17t2 -22v-29.5q0 -34 -2 -51.5t-18 -34.5l11 -19q14 6 36.5 8t36.5 2h281v-105h-281q-14 0 -36.5 2t-36.5 8l-11 -19q16 -17 18 -38.5t2 -57.5q0 -35 -2 -55t-18 -37l11 -19q14 6 36.5 8t36.5 2 h331v-105h-505v710zM478 884v-75h-295v75h295z"></glyph>
      <glyph glyph-name="emacron" unicode="ē" d="M40 239q0 51 16.5 97.5t48 82t77.5 56.5t105 21q62 0 107.5 -22t74 -60.5t39.5 -89t3 -107.5h-366q9 -61 51.5 -98t109.5 -37q28 0 52.5 7t44.5 17t35 22.5t24 22.5l51 -79q-10 -9 -27.5 -23.5t-43 -28t-60.5 -23t-82 -9.5q-61 0 -109 18.5t-81.5 51.5t-51.5 79.5 t-18 101.5zM161 273q7 5 40.5 12.5t80.5 7.5q29 0 49.5 -2t33.5 -5t20.5 -6t10.5 -6l14 5q0 32 -10 56.5t-27 41t-40 25t-49 8.5q-21 0 -44.5 -8t-43 -24t-33 -40.5t-16.5 -58.5zM431 658v-75h-295v75h295z"></glyph>
      <glyph glyph-name="Ebreve" unicode="Ĕ" d="M569 710v-105h-321q-14 0 -36.5 2t-36.5 8l-11 -19q8 -9 12 -16.5t6 -17t2 -22v-29.5q0 -34 -2 -51.5t-18 -34.5l11 -19q14 6 36.5 8t36.5 2h281v-105h-281q-14 0 -36.5 2t-36.5 8l-11 -19q16 -17 18 -38.5t2 -57.5q0 -35 -2 -55t-18 -37l11 -19q14 6 36.5 8t36.5 2h331 v-105h-505v710h495zM199 928h75q0 -32 15.5 -51t41.5 -19t41.5 19t15.5 51h75q0 -63 -36 -100.5t-96 -37.5t-96 37.5t-36 100.5z"></glyph>
      <glyph glyph-name="ebreve" unicode="ĕ" d="M287 496q62 0 107.5 -22t74 -60.5t39.5 -89t3 -107.5h-366q9 -61 51.5 -98t109.5 -37q28 0 52.5 7t44.5 17t35 22.5t24 22.5l51 -79q-10 -9 -27.5 -23.5t-43 -28t-60.5 -23t-82 -9.5q-61 0 -109 18.5t-81.5 51.5t-51.5 79.5t-18 101.5q0 51 16.5 97.5t48 82t77.5 56.5 t105 21zM147 279l14 -6q7 5 40.5 12.5t80.5 7.5q29 0 49.5 -2t33.5 -5t20.5 -6t10.5 -6l14 5q0 32 -10 56.5t-27 41t-40 25t-49 8.5q-21 0 -44.5 -8t-43 -24t-33 -40.5t-16.5 -58.5zM227 702q0 -32 15.5 -51t41.5 -19t41.5 19t15.5 51h75q0 -63 -36 -100.5t-96 -37.5 t-96 37.5t-36 100.5h75z"></glyph>
      <glyph glyph-name="Edotaccent" unicode="Ė" d="M74 710h495v-105h-321q-14 0 -36.5 2t-36.5 8l-11 -19q8 -9 12 -16.5t6 -17t2 -22v-29.5q0 -34 -2 -51.5t-18 -34.5l11 -19q14 6 36.5 8t36.5 2h281v-105h-281q-14 0 -36.5 2t-36.5 8l-11 -19q16 -17 18 -38.5t2 -57.5q0 -35 -2 -55t-18 -37l11 -19q14 6 36.5 8t36.5 2 h331v-105h-505v710zM388 890v-100h-115v100h115z"></glyph>
      <glyph glyph-name="edotaccent" unicode="ė" d="M40 239q0 51 16.5 97.5t48 82t77.5 56.5t105 21q62 0 107.5 -22t74 -60.5t39.5 -89t3 -107.5h-366q9 -61 51.5 -98t109.5 -37q28 0 52.5 7t44.5 17t35 22.5t24 22.5l51 -79q-10 -9 -27.5 -23.5t-43 -28t-60.5 -23t-82 -9.5q-61 0 -109 18.5t-81.5 51.5t-51.5 79.5 t-18 101.5zM161 273q7 5 40.5 12.5t80.5 7.5q29 0 49.5 -2t33.5 -5t20.5 -6t10.5 -6l14 5q0 32 -10 56.5t-27 41t-40 25t-49 8.5q-21 0 -44.5 -8t-43 -24t-33 -40.5t-16.5 -58.5zM341 664v-100h-115v100h115z"></glyph>
      <glyph glyph-name="Eogonek" unicode="Ę" d="M74 710h495v-105h-321q-14 0 -36.5 2t-36.5 8l-11 -19q8 -9 12 -16.5t6 -17t2 -22v-29.5q0 -34 -2 -51.5t-18 -34.5l11 -19q14 6 36.5 8t36.5 2h281v-105h-281q-14 0 -36.5 2t-36.5 8l-11 -19q16 -17 18 -38.5t2 -57.5q0 -35 -2 -55t-18 -37l11 -19q14 6 36.5 8t36.5 2 h331v-105q-29 -17 -45 -41.5t-16 -45.5q0 -17 11 -29t35 -12q19 0 38 8l11 -70q-16 -11 -36 -15.5t-41 -4.5q-47 0 -73 26.5t-26 64.5q0 30 21.5 62.5t63.5 56.5h-448v710z"></glyph>
      <glyph glyph-name="eogonek" unicode="ę" d="M40 239q0 51 16.5 97.5t48 82t77.5 56.5t105 21q62 0 107.5 -22t74 -60.5t39.5 -89t3 -107.5h-366q9 -61 51.5 -98t109.5 -37q28 0 52.5 7t44.5 17t35 22.5t24 22.5l51 -79q-9 -8 -22 -19.5t-32.5 -23t-45 -22t-58.5 -15.5q-23 -17 -36 -38.5t-13 -40.5q0 -17 11 -29 t35 -12q19 0 38 8l11 -70q-16 -11 -36 -15.5t-41 -4.5q-47 0 -73 26.5t-26 64.5q0 26 17 55t50 52q-59 1 -105.5 20.5t-79 52.5t-50 78.5t-17.5 99.5zM147 279l14 -6q7 5 40.5 12.5t80.5 7.5q29 0 49.5 -2t33.5 -5t20.5 -6t10.5 -6l14 5q0 32 -10 56.5t-27 41t-40 25 t-49 8.5q-21 0 -44.5 -8t-43 -24t-33 -40.5t-16.5 -58.5z"></glyph>
      <glyph glyph-name="Ecaron" unicode="Ě" d="M74 710h495v-105h-321q-14 0 -36.5 2t-36.5 8l-11 -19q8 -9 12 -16.5t6 -17t2 -22v-29.5q0 -34 -2 -51.5t-18 -34.5l11 -19q14 6 36.5 8t36.5 2h281v-105h-281q-14 0 -36.5 2t-36.5 8l-11 -19q16 -17 18 -38.5t2 -57.5q0 -35 -2 -55t-18 -37l11 -19q14 6 36.5 8t36.5 2 h331v-105h-505v710zM267 906l59 -70h10l59 70h97l-114 -120h-94l-114 120h97z"></glyph>
      <glyph glyph-name="ecaron" unicode="ě" d="M40 239q0 51 16.5 97.5t48 82t77.5 56.5t105 21q62 0 107.5 -22t74 -60.5t39.5 -89t3 -107.5h-366q9 -61 51.5 -98t109.5 -37q28 0 52.5 7t44.5 17t35 22.5t24 22.5l51 -79q-10 -9 -27.5 -23.5t-43 -28t-60.5 -23t-82 -9.5q-61 0 -109 18.5t-81.5 51.5t-51.5 79.5 t-18 101.5zM147 279l14 -6q7 5 40.5 12.5t80.5 7.5q29 0 49.5 -2t33.5 -5t20.5 -6t10.5 -6l14 5q0 32 -10 56.5t-27 41t-40 25t-49 8.5q-21 0 -44.5 -8t-43 -24t-33 -40.5t-16.5 -58.5zM220 680l59 -70h10l59 70h97l-114 -120h-94l-114 120h97z"></glyph>
      <glyph glyph-name="Gcircumflex" unicode="Ĝ" d="M44 345q0 81 27.5 150t77 119.5t119 79t153.5 28.5q91 0 168.5 -35t123.5 -101l-86 -77q-35 51 -89.5 79.5t-122.5 28.5q-58 0 -105.5 -21.5t-81 -58.5t-51.5 -86.5t-18 -104.5q0 -56 18.5 -103t53 -81.5t83 -53.5t108.5 -19q57 0 106 27.5t75 72.5v26q0 18 3 30.5 t19 29.5l-13 18q-11 -6 -33 -12.5t-47 -6.5h-126v99h307v-373h-103v90h-17q-23 -47 -70.5 -74.5t-122.5 -27.5q-77 0 -142 24.5t-112.5 71t-74.5 112.5t-27 149zM372 906h94l114 -120h-97l-59 70h-10l-59 -70h-97z"></glyph>
      <glyph glyph-name="gcircumflex" unicode="ĝ" d="M273 496q59 0 98 -29t54 -71h25l-10 88h105v-432q0 -53 -18 -99t-52 -80t-83 -53.5t-112 -19.5q-70 0 -124.5 22.5t-85.5 56.5l62 82q25 -33 66.5 -53.5t84.5 -20.5q33 0 63 12.5t53.5 35t37 53.5t13.5 67v33h-25q-15 -42 -54 -71t-98 -29q-47 0 -89.5 17.5t-74.5 50 t-50.5 79.5t-18.5 107t18.5 107t50.5 79.5t74.5 50t89.5 17.5zM145 242q0 -34 11 -63t30.5 -50t46.5 -32.5t60 -11.5t60.5 11.5t46.5 32.5t29.5 50t10.5 63t-10.5 63t-29.5 50t-46.5 32.5t-60.5 11.5t-60 -11.5t-46.5 -32.5t-30.5 -50t-11 -63zM256 680h94l114 -120h-97 l-59 70h-10l-59 -70h-97z"></glyph>
      <glyph glyph-name="Gbreve" unicode="Ğ" d="M421 722q91 0 168.5 -35t123.5 -101l-86 -77q-35 51 -89.5 79.5t-122.5 28.5q-58 0 -105.5 -21.5t-81 -58.5t-51.5 -86.5t-18 -104.5q0 -56 18.5 -103t53 -81.5t83 -53.5t108.5 -19q57 0 106 27.5t75 72.5v26q0 18 3 30.5t19 29.5l-13 18q-11 -6 -33 -12.5t-47 -6.5h-126 v99h307v-373h-103v90h-17q-23 -47 -70.5 -74.5t-122.5 -27.5q-77 0 -142 24.5t-112.5 71t-74.5 112.5t-27 149q0 81 27.5 150t77 119.5t119 79t153.5 28.5zM362 928q0 -32 15.5 -51t41.5 -19t41.5 19t15.5 51h75q0 -63 -36 -100.5t-96 -37.5t-96 37.5t-36 100.5h75z"></glyph>
      <glyph glyph-name="gbreve" unicode="ğ" d="M273 496q59 0 98 -29t54 -71h25l-10 88h105v-432q0 -53 -18 -99t-52 -80t-83 -53.5t-112 -19.5q-70 0 -124.5 22.5t-85.5 56.5l62 82q25 -33 66.5 -53.5t84.5 -20.5q33 0 63 12.5t53.5 35t37 53.5t13.5 67v33h-25q-15 -42 -54 -71t-98 -29q-47 0 -89.5 17.5t-74.5 50 t-50.5 79.5t-18.5 107t18.5 107t50.5 79.5t74.5 50t89.5 17.5zM145 242q0 -34 11 -63t30.5 -50t46.5 -32.5t60 -11.5t60.5 11.5t46.5 32.5t29.5 50t10.5 63t-10.5 63t-29.5 50t-46.5 32.5t-60.5 11.5t-60 -11.5t-46.5 -32.5t-30.5 -50t-11 -63zM171 702h75q0 -32 15.5 -51 t41.5 -19t41.5 19t15.5 51h75q0 -63 -36 -100.5t-96 -37.5t-96 37.5t-36 100.5z"></glyph>
      <glyph glyph-name="Gdotaccent" unicode="Ġ" d="M44 345q0 81 27.5 150t77 119.5t119 79t153.5 28.5q91 0 168.5 -35t123.5 -101l-86 -77q-35 51 -89.5 79.5t-122.5 28.5q-58 0 -105.5 -21.5t-81 -58.5t-51.5 -86.5t-18 -104.5q0 -56 18.5 -103t53 -81.5t83 -53.5t108.5 -19q57 0 106 27.5t75 72.5v26q0 18 3 30.5 t19 29.5l-13 18q-11 -6 -33 -12.5t-47 -6.5h-126v99h307v-373h-103v90h-17q-23 -47 -70.5 -74.5t-122.5 -27.5q-77 0 -142 24.5t-112.5 71t-74.5 112.5t-27 149zM476 890v-100h-115v100h115z"></glyph>
      <glyph glyph-name="gdotaccent" unicode="ġ" d="M273 496q59 0 98 -29t54 -71h25l-10 88h105v-432q0 -53 -18 -99t-52 -80t-83 -53.5t-112 -19.5q-70 0 -124.5 22.5t-85.5 56.5l62 82q25 -33 66.5 -53.5t84.5 -20.5q33 0 63 12.5t53.5 35t37 53.5t13.5 67v33h-25q-15 -42 -54 -71t-98 -29q-47 0 -89.5 17.5t-74.5 50 t-50.5 79.5t-18.5 107t18.5 107t50.5 79.5t74.5 50t89.5 17.5zM145 242q0 -34 11 -63t30.5 -50t46.5 -32.5t60 -11.5t60.5 11.5t46.5 32.5t29.5 50t10.5 63t-10.5 63t-29.5 50t-46.5 32.5t-60.5 11.5t-60 -11.5t-46.5 -32.5t-30.5 -50t-11 -63zM245 564v100h115v-100h-115z "></glyph>
      <glyph glyph-name="uni0122" unicode="Ģ" d="M44 345q0 81 27.5 150t77 119.5t119 79t153.5 28.5q91 0 168.5 -35t123.5 -101l-86 -77q-35 51 -89.5 79.5t-122.5 28.5q-58 0 -105.5 -21.5t-81 -58.5t-51.5 -86.5t-18 -104.5q0 -56 18.5 -103t53 -81.5t83 -53.5t108.5 -19q57 0 106 27.5t75 72.5v26q0 18 3 30.5 t19 29.5l-13 18q-11 -6 -33 -12.5t-47 -6.5h-126v99h307v-373h-103v90h-17q-23 -47 -70.5 -74.5t-122.5 -27.5q-77 0 -142 24.5t-112.5 71t-74.5 112.5t-27 149zM376 -151v93h106v-93l-53 -82h-43l28 55q4 6 7 12.5t9 11.5l-9 11q-6 -4 -14 -6t-14 -2h-17z"></glyph>
      <glyph glyph-name="uni0123" unicode="ģ" d="M273 496q59 0 98 -29t54 -71h25l-10 88h105v-432q0 -53 -18 -99t-52 -80t-83 -53.5t-112 -19.5q-70 0 -124.5 22.5t-85.5 56.5l62 82q25 -33 66.5 -53.5t84.5 -20.5q33 0 63 12.5t53.5 35t37 53.5t13.5 67v33h-25q-15 -42 -54 -71t-98 -29q-47 0 -89.5 17.5t-74.5 50 t-50.5 79.5t-18.5 107t18.5 107t50.5 79.5t74.5 50t89.5 17.5zM145 242q0 -34 11 -63t30.5 -50t46.5 -32.5t60 -11.5t60.5 11.5t46.5 32.5t29.5 50t10.5 63t-10.5 63t-29.5 50t-46.5 32.5t-60.5 11.5t-60 -11.5t-46.5 -32.5t-30.5 -50t-11 -63zM253 564v93l53 82h43l-28 -55 q-4 -6 -7 -12.5t-9 -11.5l9 -11q6 4 14 6t14 2h17v-93h-106z"></glyph>
      <glyph glyph-name="Hcircumflex" unicode="Ĥ" d="M74 0v710h110v-233q0 -14 -2.5 -37.5t-8.5 -37.5l18 -14q9 4 14 7t16 4.5t32 2.5t60 1h121q39 0 60 -1t32 -2.5t16 -4.5t14 -7l18 14q-6 14 -8.5 37.5t-2.5 37.5v233h110v-710h-110v227q0 14 2.5 37.5t8.5 37.5l-18 14q-9 -4 -14 -7t-16 -4.5t-32 -2.5t-60 -1h-121 q-39 0 -60 1t-32 2.5t-16 4.5t-14 7l-18 -14q6 -14 8.5 -37.5t2.5 -37.5v-227h-110zM327 906h94l114 -120h-97l-59 70h-10l-59 -70h-97z"></glyph>
      <glyph glyph-name="hcircumflex" unicode="ĥ" d="M64 710h105v-214q0 -37 -3 -60t-7 -40h27q5 17 16.5 34.5t30.5 32t46 24t62 9.5q81 0 128 -53.5t47 -150.5v-292h-105v249q0 71 -27.5 113t-91.5 42q-65 0 -94 -43.5t-29 -111.5v-249h-105v710zM70 858h94l114 -120h-97l-59 70h-10l-59 -70h-97z"></glyph>
      <glyph glyph-name="Hbar" unicode="Ħ" d="M5 510v85h69v115h110v-115h379v115h110v-115h69v-85h-69v-510h-110v227q0 14 2.5 37.5t8.5 37.5l-18 14q-9 -4 -14 -7t-16 -4.5t-32 -2.5t-60 -1h-121q-39 0 -60 1t-32 2.5t-16 4.5t-14 7l-18 -14q6 -14 8.5 -37.5t2.5 -37.5v-227h-110v510h-69zM173 402l18 -14q9 4 14 7 t16 4.5t32 2.5t60 1h121q39 0 60 -1t32 -2.5t16 -4.5t14 -7l18 14q-6 14 -8.5 37.5t-2.5 37.5v33h-379v-33q0 -14 -2.5 -37.5t-8.5 -37.5z"></glyph>
      <glyph glyph-name="hbar" unicode="ħ" d="M0 576v69h64v65h105v-65h128v-69h-128v-80q0 -37 -3 -60t-7 -40h27q5 17 16.5 34.5t30.5 32t46 24t62 9.5q81 0 128 -53.5t47 -150.5v-292h-105v249q0 71 -27.5 113t-91.5 42q-65 0 -94 -43.5t-29 -111.5v-249h-105v576h-64z"></glyph>
      <glyph glyph-name="Itilde" unicode="Ĩ" d="M74 710h110v-710h-110v710zM68 893q24 0 41 -8t30.5 -17t24.5 -17t23 -8t18 9t6 24v6.5t-1 7.5h70q1 -5 1 -10v-10q0 -46 -24 -72.5t-66 -26.5q-24 0 -41.5 8t-31 17t-24.5 17t-22 8t-18 -8t-7 -25v-6.5t1 -7.5h-70q-1 5 -1 9v9q0 47 23.5 74t67.5 27z"></glyph>
      <glyph glyph-name="itilde" unicode="ĩ" d="M64 484h105v-484h-105v484zM60 667q23 0 39 -8t28.5 -17t23 -17t21.5 -8t16.5 9t5.5 24v6.5t-1 7.5h66q1 -5 1 -10v-10q0 -46 -23 -72.5t-62 -26.5q-22 0 -38.5 8t-29 17t-23 17t-21.5 8q-10 0 -16.5 -8t-6.5 -25v-6.5t1 -7.5h-66q-1 5 -1 9v9q0 47 22 74t64 27z"></glyph>
      <glyph glyph-name="Imacron" unicode="Ī" d="M-19 884h295v-75h-295v75zM74 0v710h110v-710h-110z"></glyph>
      <glyph glyph-name="imacron" unicode="ī" d="M-11 658h255v-75h-255v75zM64 0v484h105v-484h-105z"></glyph>
      <glyph glyph-name="Ibreve" unicode="Ĭ" d="M74 710h110v-710h-110v710zM72 928q0 -32 15.5 -51t41.5 -19t41.5 19t15.5 51h75q0 -63 -36 -100.5t-96 -37.5t-96 37.5t-36 100.5h75z"></glyph>
      <glyph glyph-name="ibreve" unicode="ĭ" d="M64 484h105v-484h-105v484zM60 702q0 -32 15.5 -51t41.5 -19t41.5 19t15.5 51h75q0 -63 -36 -100.5t-96 -37.5t-96 37.5t-36 100.5h75z"></glyph>
      <glyph glyph-name="Iogonek" unicode="Į" d="M127 0h-53v710h110v-710q-29 -17 -45 -41.5t-16 -45.5q0 -17 11 -29t35 -12q19 0 38 8l11 -70q-16 -11 -36 -15.5t-41 -4.5q-47 0 -73 26.5t-26 64.5q0 30 21.5 62.5t63.5 56.5z"></glyph>
      <glyph glyph-name="iogonek" unicode="į" d="M112 0h-48v484h105v-484q-29 -17 -45 -41.5t-16 -45.5q0 -17 11 -29t35 -12q19 0 38 8l11 -70q-16 -11 -36 -15.5t-41 -4.5q-47 0 -73 26.5t-26 64.5q0 30 21.5 62.5t63.5 56.5zM59 664h115v-100h-115v100z"></glyph>
      <glyph glyph-name="Idotaccent" unicode="İ" d="M71 790v100h115v-100h-115zM74 0v710h110v-710h-110z"></glyph>
      <glyph glyph-name="dotlessi" unicode="ı" d="M64 0v484h105v-484h-105z"></glyph>
      <glyph glyph-name="Jcircumflex" unicode="Ĵ" d="M117 227q11 -35 24.5 -60t31 -41.5t40 -24.5t52.5 -8q69 0 105 41.5t36 111.5v464h110v-458q0 -124 -65 -194t-186 -70q-62 0 -106 19t-73.5 48t-45 64t-19.5 67zM299 786l114 120h94l114 -120h-97l-59 70h-10l-59 -70h-97z"></glyph>
      <glyph glyph-name="jcircumflex" unicode="ĵ" d="M9 -98q29 0 43.5 18.5t14.5 65.5v498h105v-501q0 -85 -42.5 -134t-120.5 -49v102zM-34 560l104 120h94l104 -120h-97l-49 70h-10l-49 -70h-97z"></glyph>
      <glyph glyph-name="uni0136" unicode="Ķ" d="M74 710h110v-241q0 -23 -3 -50.5t-10 -58.5l25 -9q12 20 28.5 46t48.5 61l231 252h140l-218 -238q-18 -20 -39 -39.5t-44 -37.5v-22q20 -4 44.5 -19t38.5 -34l243 -320h-138l-245 324l-102 -104v-220h-110v710zM294 -151v93h106v-93l-53 -82h-43l28 55q4 6 7 12.5t9 11.5 l-9 11q-6 -4 -14 -6t-14 -2h-17z"></glyph>
      <glyph glyph-name="uni0137" unicode="ķ" d="M169 710v-313q0 -40 -3.5 -66.5t-7.5 -40.5l15 -9l199 203h127l-143 -143q-7 -7 -17 -16t-21 -17.5t-21 -15.5t-16 -10v-13q22 -8 46 -28.5t39 -40.5l153 -200h-131l-162 221l-57 -58v-163h-105v710h105zM225 -151v93h106v-93l-53 -82h-43l28 55q4 6 7 12.5t9 11.5l-9 11 q-6 -4 -14 -6t-14 -2h-17z"></glyph>
      <glyph glyph-name="kgreenlandic" unicode="ĸ" d="M64 484h105v-87q0 -40 -3.5 -66.5t-7.5 -40.5l15 -9l199 203h127l-143 -143q-7 -7 -17 -16t-21 -17.5t-21 -15.5t-16 -10v-13q22 -8 46 -28.5t39 -40.5l153 -200h-131l-162 221l-57 -58v-163h-105v484z"></glyph>
      <glyph glyph-name="Lacute" unicode="Ĺ" d="M184 710v-535q0 -29 -3.5 -48.5t-9.5 -33.5l19 -15q14 10 36.5 18.5t57.5 8.5h254v-105h-464v710h110zM163 936h119l-119 -145h-77z"></glyph>
      <glyph glyph-name="lacute" unicode="ĺ" d="M152 936h119l-119 -145h-77zM65 0v710h105v-710h-105z"></glyph>
      <glyph glyph-name="uni013B" unicode="Ļ" d="M74 0v710h110v-535q0 -29 -3.5 -48.5t-9.5 -33.5l19 -15q14 10 36.5 18.5t57.5 8.5h254v-105h-464zM266 -58h106v-93l-53 -82h-43l28 55q4 6 7 12.5t9 11.5l-9 11q-6 -4 -14 -6t-14 -2h-17v93z"></glyph>
      <glyph glyph-name="uni013C" unicode="ļ" d="M65 0v710h105v-710h-105zM171 -58v-93l-53 -82h-43l28 55q4 6 7 12.5t9 11.5l-9 11q-6 -4 -14 -6t-14 -2h-17v93h106z"></glyph>
      <glyph glyph-name="Lcaron" unicode="Ľ" d="M184 710v-535q0 -29 -3.5 -48.5t-9.5 -33.5l19 -15q14 10 36.5 18.5t57.5 8.5h254v-105h-464v710h110zM397 730h101v-101l-55 -96h-40l23 66q2 5 5.5 12t11.5 15l-8 10q-13 -7 -23 -7h-15v101z"></glyph>
      <glyph glyph-name="lcaron" unicode="ľ" d="M170 710v-710h-105v710h105zM333 730v-101l-55 -96h-40l23 66q2 5 5.5 12t11.5 15l-8 10q-13 -7 -23 -7h-15v101h101z"></glyph>
      <glyph glyph-name="Ldot" unicode="Ŀ" d="M74 710h110v-535q0 -29 -3.5 -48.5t-9.5 -33.5l19 -15q14 10 36.5 18.5t57.5 8.5h254v-105h-464v710zM316 408h118v-118h-118v118z"></glyph>
      <glyph glyph-name="ldot" unicode="ŀ" d="M65 0v710h105v-710h-105zM229 456h118v-118h-118v118z"></glyph>
      <glyph glyph-name="Lslash" unicode="Ł" d="M-6 231v79l80 45v355h110v-293l131 73v-79l-131 -73v-163q0 -29 -3.5 -48.5t-9.5 -33.5l19 -15q14 10 36.5 18.5t57.5 8.5h254v-105h-464v276z"></glyph>
      <glyph glyph-name="lslash" unicode="ł" d="M65 400v310h105v-239l73 49v-79l-73 -49v-392h-105v321l-75 -50v79z"></glyph>
      <glyph glyph-name="Nacute" unicode="Ń" d="M74 710h115l313 -442q14 -19 26.5 -47.5t22.5 -55.5l27 8q-4 17 -8.5 48.5t-4.5 82.5v406h110v-710h-115l-313 443q-14 20 -26 48t-23 55l-27 -8q4 -17 8.5 -48.5t4.5 -82.5v-407h-110v710zM327 791l77 145h119l-119 -145h-77z"></glyph>
      <glyph glyph-name="nacute" unicode="ń" d="M64 0v484h105l-5 -89h25q5 17 16 35t29.5 32.5t45 24t61.5 9.5q81 0 128 -53.5t47 -150.5v-292h-105v259q0 74 -28.5 109.5t-90.5 35.5q-65 0 -94 -43.5t-29 -111.5v-249h-105zM247 565l77 145h119l-119 -145h-77z"></glyph>
      <glyph glyph-name="uni0145" unicode="Ņ" d="M189 710l313 -442q14 -19 26.5 -47.5t22.5 -55.5l27 8q-4 17 -8.5 48.5t-4.5 82.5v406h110v-710h-115l-313 443q-14 20 -26 48t-23 55l-27 -8q4 -17 8.5 -48.5t4.5 -82.5v-407h-110v710h115zM324 -58h106v-93l-53 -82h-43l28 55q4 6 7 12.5t9 11.5l-9 11q-6 -4 -14 -6 t-14 -2h-17v93z"></glyph>
      <glyph glyph-name="uni0146" unicode="ņ" d="M64 0v484h105l-5 -89h25q5 17 16 35t29.5 32.5t45 24t61.5 9.5q81 0 128 -53.5t47 -150.5v-292h-105v259q0 74 -28.5 109.5t-90.5 35.5q-65 0 -94 -43.5t-29 -111.5v-249h-105zM245 -58h106v-93l-53 -82h-43l28 55q4 6 7 12.5t9 11.5l-9 11q-6 -4 -14 -6t-14 -2h-17v93z "></glyph>
      <glyph glyph-name="Ncaron" unicode="Ň" d="M189 710l313 -442q14 -19 26.5 -47.5t22.5 -55.5l27 8q-4 17 -8.5 48.5t-4.5 82.5v406h110v-710h-115l-313 443q-14 20 -26 48t-23 55l-27 -8q4 -17 8.5 -48.5t4.5 -82.5v-407h-110v710h115zM315 906l59 -70h10l59 70h97l-114 -120h-94l-114 120h97z"></glyph>
      <glyph glyph-name="ncaron" unicode="ň" d="M64 0v484h105l-5 -89h25q5 17 16 35t29.5 32.5t45 24t61.5 9.5q81 0 128 -53.5t47 -150.5v-292h-105v259q0 74 -28.5 109.5t-90.5 35.5q-65 0 -94 -43.5t-29 -111.5v-249h-105zM235 680l59 -70h10l59 70h97l-114 -120h-94l-114 120h97z"></glyph>
      <glyph glyph-name="Eng" unicode="Ŋ" d="M74 710h115l313 -442q14 -19 26.5 -47.5t22.5 -55.5l27 8q-4 17 -8.5 48.5t-4.5 82.5v406h110v-727q0 -85 -45 -134t-123 -49v102q29 0 43.5 18.5t14.5 65.5v14l-318 443q-14 20 -26 48t-23 55l-27 -8q4 -17 8.5 -48.5t4.5 -82.5v-407h-110v710z"></glyph>
      <glyph glyph-name="eng" unicode="ŋ" d="M64 0v484h105l-5 -89h25q5 17 16 35t29.5 32.5t45 24t61.5 9.5q81 0 128 -53.5t47 -150.5v-309q0 -85 -42.5 -134t-120.5 -49v102q29 0 43.5 18.5t14.5 65.5v273q0 74 -28.5 109.5t-90.5 35.5q-65 0 -94 -43.5t-29 -111.5v-249h-105z"></glyph>
      <glyph glyph-name="Omacron" unicode="Ō" d="M44 355q0 80 27 147t75 116t114.5 76.5t145.5 27.5t145.5 -27.5t114.5 -76.5t75 -116t27 -147q0 -79 -27 -146.5t-75.5 -116.5t-115 -76.5t-144.5 -27.5t-144.5 27.5t-115 76.5t-75.5 116.5t-27 146.5zM406 93q54 0 100 19.5t79 54.5t52 83t19 105t-19 105t-52 83 t-79 54.5t-100 19.5t-100 -19.5t-79 -54.5t-52 -83t-19 -105t19 -105t52 -83t79 -54.5t100 -19.5zM258 809v75h295v-75h-295z"></glyph>
      <glyph glyph-name="omacron" unicode="ō" d="M40 242q0 56 18.5 102.5t52.5 80t81 52.5t104 19t104 -19t81 -52.5t52.5 -80t18.5 -102.5q0 -55 -18.5 -102t-52.5 -80.5t-81 -52.5t-104 -19t-104 19t-81 52.5t-52.5 80.5t-18.5 102zM296 82q34 0 62 12t48.5 33t31.5 50.5t11 64.5t-11 64.5t-31.5 50.5t-48.5 33t-62 12 t-62 -12t-48 -33t-31.5 -50.5t-11.5 -64.5t11.5 -64.5t31.5 -50.5t48 -33t62 -12zM148 583v75h295v-75h-295z"></glyph>
      <glyph glyph-name="Obreve" unicode="Ŏ" d="M406 722q79 0 145.5 -27.5t114.5 -76.5t75 -116t27 -147q0 -79 -27 -146.5t-75.5 -116.5t-115 -76.5t-144.5 -27.5t-144.5 27.5t-115 76.5t-75.5 116.5t-27 146.5q0 80 27 147t75 116t114.5 76.5t145.5 27.5zM406 93q54 0 100 19.5t79 54.5t52 83t19 105t-19 105t-52 83 t-79 54.5t-100 19.5t-100 -19.5t-79 -54.5t-52 -83t-19 -105t19 -105t52 -83t79 -54.5t100 -19.5zM274 928h75q0 -32 15.5 -51t41.5 -19t41.5 19t15.5 51h75q0 -63 -36 -100.5t-96 -37.5t-96 37.5t-36 100.5z"></glyph>
      <glyph glyph-name="obreve" unicode="ŏ" d="M296 496q57 0 104 -19t81 -52.5t52.5 -80t18.5 -102.5q0 -55 -18.5 -102t-52.5 -80.5t-81 -52.5t-104 -19t-104 19t-81 52.5t-52.5 80.5t-18.5 102q0 56 18.5 102.5t52.5 80t81 52.5t104 19zM296 82q34 0 62 12t48.5 33t31.5 50.5t11 64.5t-11 64.5t-31.5 50.5t-48.5 33 t-62 12t-62 -12t-48 -33t-31.5 -50.5t-11.5 -64.5t11.5 -64.5t31.5 -50.5t48 -33t62 -12zM164 702h75q0 -32 15.5 -51t41.5 -19t41.5 19t15.5 51h75q0 -63 -36 -100.5t-96 -37.5t-96 37.5t-36 100.5z"></glyph>
      <glyph glyph-name="Ohungarumlaut" unicode="Ő" d="M44 355q0 80 27 147t75 116t114.5 76.5t145.5 27.5t145.5 -27.5t114.5 -76.5t75 -116t27 -147q0 -79 -27 -146.5t-75.5 -116.5t-115 -76.5t-144.5 -27.5t-144.5 27.5t-115 76.5t-75.5 116.5t-27 146.5zM406 93q54 0 100 19.5t79 54.5t52 83t19 105t-19 105t-52 83 t-79 54.5t-100 19.5t-100 -19.5t-79 -54.5t-52 -83t-19 -105t19 -105t52 -83t79 -54.5t100 -19.5zM437 791l77 145h91l-91 -145h-77zM286 791l77 145h91l-91 -145h-77z"></glyph>
      <glyph glyph-name="ohungarumlaut" unicode="ő" d="M40 242q0 56 18.5 102.5t52.5 80t81 52.5t104 19t104 -19t81 -52.5t52.5 -80t18.5 -102.5q0 -55 -18.5 -102t-52.5 -80.5t-81 -52.5t-104 -19t-104 19t-81 52.5t-52.5 80.5t-18.5 102zM296 82q34 0 62 12t48.5 33t31.5 50.5t11 64.5t-11 64.5t-31.5 50.5t-48.5 33t-62 12 t-62 -12t-48 -33t-31.5 -50.5t-11.5 -64.5t11.5 -64.5t31.5 -50.5t48 -33t62 -12zM327 565l77 145h91l-91 -145h-77zM176 565l77 145h91l-91 -145h-77z"></glyph>
      <glyph glyph-name="OE" unicode="Œ" d="M404 722q86 0 147.5 -31t100.5 -85v103h495v-105h-321q-14 0 -36.5 2t-36.5 8l-11 -19q8 -9 12 -16.5t6 -17t2 -22v-29.5q0 -34 -2 -51.5t-18 -34.5l11 -19q14 6 36.5 8t36.5 2h281v-105h-281q-14 0 -36.5 2t-36.5 8l-11 -19q16 -17 18 -38.5t2 -56.5t-2 -55t-18 -37 l11 -19q14 6 36.5 8t36.5 2h331v-105h-505v104q-39 -54 -100.5 -85t-147.5 -31q-80 0 -146.5 28t-114 77.5t-73.5 116.5t-26 145t26 145t73.5 116.5t114 77.5t146.5 28zM156 355q0 -57 19.5 -106t53 -84t78.5 -55t97 -20t97 20t78.5 55t53 84t19.5 106t-19.5 106t-53 84 t-78.5 55t-97 20t-97 -20t-78.5 -55t-53 -84t-19.5 -106z"></glyph>
      <glyph glyph-name="oe" unicode="œ" d="M296 496q74 0 125 -30.5t79 -83.5q26 51 74.5 82.5t121.5 31.5q62 0 107.5 -22t74 -60.5t39.5 -89t3 -107.5h-366q9 -61 51.5 -98t109.5 -37q28 0 52.5 7t44.5 17t35 22.5t24 22.5l51 -79q-10 -9 -27.5 -23.5t-43 -28t-60.5 -23t-82 -9.5q-78 0 -130 29.5t-80 82.5 q-28 -52 -79 -82t-124 -30q-57 0 -104 19t-81 52.5t-52.5 80.5t-18.5 102q0 56 18.5 102.5t52.5 80t81 52.5t104 19zM296 82q34 0 62 12t48.5 33t31.5 50.5t11 64.5t-11 64.5t-31.5 50.5t-48.5 33t-62 12t-62 -12t-48 -33t-31.5 -50.5t-11.5 -64.5t11.5 -64.5t31.5 -50.5 t48 -33t62 -12zM556 279l14 -6q7 5 40.5 12.5t80.5 7.5q29 0 49.5 -2t33.5 -5t20.5 -6t10.5 -6l14 5q0 32 -10 56.5t-27 41t-40 25t-49 8.5q-21 0 -44.5 -8t-43 -24t-33 -40.5t-16.5 -58.5z"></glyph>
      <glyph glyph-name="Racute" unicode="Ŕ" d="M381 710q56 0 99 -17.5t71.5 -48t43 -71t14.5 -85.5q0 -41 -13 -76.5t-37 -62.5t-58 -44.5t-77 -23.5v-20q26 -9 45.5 -27.5t33.5 -39.5l134 -194h-134l-185 272h-70q-15 0 -37 2t-36 8l-11 -19q16 -17 18 -36t2 -51v-176h-110v710h307zM164 373l11 -19q14 6 36 8t37 2 h119q63 0 96.5 33.5t33.5 90.5t-33.5 89.5t-96.5 32.5h-119q-15 0 -37 2t-36 8l-11 -19q8 -9 12 -21.5t6 -27.5t2 -31.5v-32.5v-33t-2 -32.5t-6 -28t-12 -21.5zM337 936h119l-119 -145h-77z"></glyph>
      <glyph glyph-name="racute" unicode="ŕ" d="M169 484v-78h24q12 38 43.5 60.5t71.5 22.5q34 0 66 -16l-30 -109q-41 22 -77 22q-23 0 -40 -9t-29 -21.5t-19 -27.5t-10 -27v-301h-105v484h105zM251 710h119l-119 -145h-77z"></glyph>
      <glyph glyph-name="uni0156" unicode="Ŗ" d="M74 0v710h307q56 0 99 -17.5t71.5 -48t43 -71t14.5 -85.5q0 -41 -13 -76.5t-37 -62.5t-58 -44.5t-77 -23.5v-20q26 -9 45.5 -27.5t33.5 -39.5l134 -194h-134l-185 272h-70q-15 0 -37 2t-36 8l-11 -19q16 -17 18 -36t2 -51v-176h-110zM164 373l11 -19q14 6 36 8t37 2h119 q63 0 96.5 33.5t33.5 90.5t-33.5 89.5t-96.5 32.5h-119q-15 0 -37 2t-36 8l-11 -19q8 -9 12 -21.5t6 -27.5t2 -31.5v-32.5v-33t-2 -32.5t-6 -28t-12 -21.5zM290 -58h106v-93l-53 -82h-43l28 55q4 6 7 12.5t9 11.5l-9 11q-6 -4 -14 -6t-14 -2h-17v93z"></glyph>
      <glyph glyph-name="uni0157" unicode="ŗ" d="M169 484v-78h24q12 38 43.5 60.5t71.5 22.5q34 0 66 -16l-30 -109q-41 22 -77 22q-23 0 -40 -9t-29 -21.5t-19 -27.5t-10 -27v-301h-105v484h105zM172 -58v-93l-53 -82h-43l28 55q4 6 7 12.5t9 11.5l-9 11q-6 -4 -14 -6t-14 -2h-17v93h106z"></glyph>
      <glyph glyph-name="Rcaron" unicode="Ř" d="M74 710h307q56 0 99 -17.5t71.5 -48t43 -71t14.5 -85.5q0 -41 -13 -76.5t-37 -62.5t-58 -44.5t-77 -23.5v-20q26 -9 45.5 -27.5t33.5 -39.5l134 -194h-134l-185 272h-70q-15 0 -37 2t-36 8l-11 -19q16 -17 18 -36t2 -51v-176h-110v710zM164 373l11 -19q14 6 36 8t37 2 h119q63 0 96.5 33.5t33.5 90.5t-33.5 89.5t-96.5 32.5h-119q-15 0 -37 2t-36 8l-11 -19q8 -9 12 -21.5t6 -27.5t2 -31.5v-32.5v-33t-2 -32.5t-6 -28t-12 -21.5zM248 906l59 -70h10l59 70h97l-114 -120h-94l-114 120h97z"></glyph>
      <glyph glyph-name="rcaron" unicode="ř" d="M64 484h105v-78h24q12 38 43.5 60.5t71.5 22.5q34 0 66 -16l-30 -109q-41 22 -77 22q-23 0 -40 -9t-29 -21.5t-19 -27.5t-10 -27v-301h-105v484zM162 680l59 -70h10l59 70h97l-114 -120h-94l-114 120h97z"></glyph>
      <glyph glyph-name="Sacute" unicode="Ś" d="M25 104l65 92q14 -16 34.5 -34.5t48.5 -34.5t63.5 -26t80.5 -10q40 0 69.5 8.5t49 22.5t29.5 32.5t10 39.5q0 25 -12 42.5t-32.5 30t-48 20.5t-58.5 15q-45 10 -92.5 22t-86.5 33.5t-64 57t-25 92.5q0 50 20 90t56 67.5t85 42.5t107 15q83 0 150 -29t105 -81l-76 -81 q-9 14 -23 29t-35.5 28.5t-51 22t-70.5 8.5q-75 0 -116.5 -29t-41.5 -74q0 -28 15.5 -46.5t42 -30.5t60 -20.5t69.5 -16.5q42 -10 83.5 -22.5t74.5 -34t53.5 -55t20.5 -85.5q0 -50 -20.5 -90t-56.5 -68.5t-86.5 -43.5t-110.5 -15q-48 0 -92 9.5t-80.5 25.5t-65.5 37t-47 44z M350 936h119l-119 -145h-77z"></glyph>
      <glyph glyph-name="sacute" unicode="ś" d="M20 72l59 83q26 -41 67 -60.5t78 -19.5q7 0 23.5 1.5t33.5 7t30 16t13 29.5q0 23 -20 34.5t-50.5 19.5t-66 16t-66 23.5t-50.5 43t-20 73.5q0 72 50 114.5t136 42.5q49 0 97 -16.5t83 -55.5l-69 -77q-38 62 -118 62q-42 0 -62.5 -14.5t-20.5 -39.5q0 -26 20 -39t50.5 -21 t66 -15.5t66 -22.5t50.5 -41.5t20 -72.5q0 -73 -52.5 -114t-146.5 -41q-65 0 -118 21t-83 63zM188 565l77 145h119l-119 -145h-77z"></glyph>
      <glyph glyph-name="Scircumflex" unicode="Ŝ" d="M25 104l65 92q14 -16 34.5 -34.5t48.5 -34.5t63.5 -26t80.5 -10q40 0 69.5 8.5t49 22.5t29.5 32.5t10 39.5q0 25 -12 42.5t-32.5 30t-48 20.5t-58.5 15q-45 10 -92.5 22t-86.5 33.5t-64 57t-25 92.5q0 50 20 90t56 67.5t85 42.5t107 15q83 0 150 -29t105 -81l-76 -81 q-9 14 -23 29t-35.5 28.5t-51 22t-70.5 8.5q-75 0 -116.5 -29t-41.5 -74q0 -28 15.5 -46.5t42 -30.5t60 -20.5t69.5 -16.5q42 -10 83.5 -22.5t74.5 -34t53.5 -55t20.5 -85.5q0 -50 -20.5 -90t-56.5 -68.5t-86.5 -43.5t-110.5 -15q-48 0 -92 9.5t-80.5 25.5t-65.5 37t-47 44z M164 786l114 120h94l114 -120h-97l-59 70h-10l-59 -70h-97z"></glyph>
      <glyph glyph-name="scircumflex" unicode="ŝ" d="M20 72l59 83q26 -41 67 -60.5t78 -19.5q7 0 23.5 1.5t33.5 7t30 16t13 29.5q0 23 -20 34.5t-50.5 19.5t-66 16t-66 23.5t-50.5 43t-20 73.5q0 72 50 114.5t136 42.5q49 0 97 -16.5t83 -55.5l-69 -77q-38 62 -118 62q-42 0 -62.5 -14.5t-20.5 -39.5q0 -26 20 -39t50.5 -21 t66 -15.5t66 -22.5t50.5 -41.5t20 -72.5q0 -73 -52.5 -114t-146.5 -41q-65 0 -118 21t-83 63zM79 560l114 120h94l114 -120h-97l-59 70h-10l-59 -70h-97z"></glyph>
      <glyph glyph-name="Scedilla" unicode="Ş" d="M25 104l65 92q14 -16 34.5 -34.5t48.5 -34.5t63.5 -26t80.5 -10q40 0 69.5 8.5t49 22.5t29.5 32.5t10 39.5q0 25 -12 42.5t-32.5 30t-48 20.5t-58.5 15q-45 10 -92.5 22t-86.5 33.5t-64 57t-25 92.5q0 50 20 90t56 67.5t85 42.5t107 15q83 0 150 -29t105 -81l-76 -81 q-9 14 -23 29t-35.5 28.5t-51 22t-70.5 8.5q-75 0 -116.5 -29t-41.5 -74q0 -28 15.5 -46.5t42 -30.5t60 -20.5t69.5 -16.5q42 -10 83.5 -22.5t74.5 -34t53.5 -55t20.5 -85.5q0 -46 -17 -83.5t-48 -65t-74.5 -45t-95.5 -21.5l-19 -49l5 -4q17 6 35 6q33 0 60 -19t27 -58 q0 -43 -36 -70.5t-92 -27.5q-26 0 -51 7t-43 21l31 59q8 -8 25.5 -15t37.5 -7q51 0 51 34q0 16 -12.5 23.5t-30.5 7.5q-17 0 -34 -6l-42 26l30 70q-45 2 -86 12.5t-75 26t-60.5 35.5t-44.5 42z"></glyph>
      <glyph glyph-name="scedilla" unicode="ş" d="M20 72l59 83q26 -41 67 -60.5t78 -19.5q7 0 23.5 1.5t33.5 7t30 16t13 29.5q0 23 -20 34.5t-50.5 19.5t-66 16t-66 23.5t-50.5 43t-20 73.5q0 72 50 114.5t136 42.5q49 0 97 -16.5t83 -55.5l-69 -77q-38 62 -118 62q-42 0 -62.5 -14.5t-20.5 -39.5q0 -26 20 -39t50.5 -21 t66 -15.5t66 -22.5t50.5 -41.5t20 -72.5q0 -66 -44 -106t-122 -48l-19 -48l5 -4q17 6 35 6q33 0 60 -19t27 -58q0 -43 -36 -70.5t-92 -27.5q-26 0 -51 7t-43 21l31 59q8 -8 25.5 -15t37.5 -7q51 0 51 34q0 16 -12.5 23.5t-30.5 7.5q-17 0 -34 -6l-42 26l30 71 q-57 4 -103 24.5t-73 58.5z"></glyph>
      <glyph glyph-name="Scaron" unicode="Š" d="M25 104l65 92q14 -16 34.5 -34.5t48.5 -34.5t63.5 -26t80.5 -10q40 0 69.5 8.5t49 22.5t29.5 32.5t10 39.5q0 25 -12 42.5t-32.5 30t-48 20.5t-58.5 15q-45 10 -92.5 22t-86.5 33.5t-64 57t-25 92.5q0 50 20 90t56 67.5t85 42.5t107 15q83 0 150 -29t105 -81l-76 -81 q-9 14 -23 29t-35.5 28.5t-51 22t-70.5 8.5q-75 0 -116.5 -29t-41.5 -74q0 -28 15.5 -46.5t42 -30.5t60 -20.5t69.5 -16.5q42 -10 83.5 -22.5t74.5 -34t53.5 -55t20.5 -85.5q0 -50 -20.5 -90t-56.5 -68.5t-86.5 -43.5t-110.5 -15q-48 0 -92 9.5t-80.5 25.5t-65.5 37t-47 44z M261 906l59 -70h10l59 70h97l-114 -120h-94l-114 120h97z"></glyph>
      <glyph glyph-name="scaron" unicode="š" d="M20 72l59 83q26 -41 67 -60.5t78 -19.5q7 0 23.5 1.5t33.5 7t30 16t13 29.5q0 23 -20 34.5t-50.5 19.5t-66 16t-66 23.5t-50.5 43t-20 73.5q0 72 50 114.5t136 42.5q49 0 97 -16.5t83 -55.5l-69 -77q-38 62 -118 62q-42 0 -62.5 -14.5t-20.5 -39.5q0 -26 20 -39t50.5 -21 t66 -15.5t66 -22.5t50.5 -41.5t20 -72.5q0 -73 -52.5 -114t-146.5 -41q-65 0 -118 21t-83 63zM176 680l59 -70h10l59 70h97l-114 -120h-94l-114 120h97z"></glyph>
      <glyph glyph-name="uni0162" unicode="Ţ" d="M26 605v105h587v-105h-138q-35 0 -55.5 9t-35.5 19l-19 -15q3 -7 5 -18t3 -23.5t1.5 -23.5t0.5 -18v-535h-24l-23 -59l5 -4q17 6 35 6q33 0 60 -19t27 -58q0 -43 -36 -70.5t-92 -27.5q-26 0 -51 7t-43 21l31 59q8 -8 25.5 -15t37.5 -7q51 0 51 34q0 16 -12.5 23.5 t-30.5 7.5q-17 0 -34 -6l-42 26l34 82h-28v535q0 7 0.5 18t1.5 23.5t3 23.5t5 18l-19 15q-16 -11 -38 -19.5t-57 -8.5h-135z"></glyph>
      <glyph glyph-name="uni0163" unicode="ţ" d="M116 484v196h105v-126q0 -18 -9 -39t-26 -32l17 -19q12 8 25.5 14t33.5 6h162v-90h-203v-210q0 -55 20.5 -79.5t57.5 -24.5q31 0 67.5 18t63.5 46l39 -84q-35 -30 -76 -48t-84 -23l-19 -48l5 -4q17 6 35 6q33 0 60 -19t27 -58q0 -43 -36 -70.5t-92 -27.5q-26 0 -51 7 t-43 21l31 59q8 -8 25.5 -15t37.5 -7q51 0 51 34q0 16 -12.5 23.5t-30.5 7.5q-17 0 -34 -6l-42 26l30 72q-63 9 -99 52t-36 124v228h-107v90h107z"></glyph>
      <glyph glyph-name="Tcaron" unicode="Ť" d="M26 605v105h587v-105h-138q-35 0 -55.5 9t-35.5 19l-19 -15q3 -7 5 -18t3 -23.5t1.5 -23.5t0.5 -18v-535h-110v535q0 7 0.5 18t1.5 23.5t3 23.5t5 18l-19 15q-16 -11 -38 -19.5t-57 -8.5h-135zM256 906l59 -70h10l59 70h97l-114 -120h-94l-114 120h97z"></glyph>
      <glyph glyph-name="tcaron" unicode="ť" d="M9 484h107v196h105v-126q0 -18 -9 -39t-26 -32l17 -19q12 8 25.5 14t33.5 6h162v-90h-203v-210q0 -55 20.5 -79.5t57.5 -24.5q31 0 67.5 18t63.5 46l39 -84q-40 -35 -87.5 -53.5t-97.5 -18.5q-77 0 -122.5 43.5t-45.5 134.5v228h-107v90zM367 730h101v-101l-55 -96h-40 l23 66q2 5 5.5 12t11.5 15l-8 10q-13 -7 -23 -7h-15v101z"></glyph>
      <glyph glyph-name="Tbar" unicode="Ŧ" d="M26 710h587v-105h-138q-35 0 -55.5 9t-35.5 19l-19 -15q3 -7 5 -18t3 -23.5t1.5 -23.5t0.5 -18v-51h129v-85h-129v-399h-110v399h-132v85h132v51q0 7 0.5 18t1.5 23.5t3 23.5t5 18l-19 15q-16 -11 -38 -19.5t-57 -8.5h-135v105z"></glyph>
      <glyph glyph-name="tbar" unicode="ŧ" d="M9 394v90h107v196h105v-126q0 -18 -9 -39t-26 -32l17 -19q12 8 25.5 14t33.5 6h162v-90h-203v-96h187v-85h-187v-29q0 -55 20.5 -79.5t57.5 -24.5q31 0 67.5 18t63.5 46l39 -84q-40 -35 -87.5 -53.5t-97.5 -18.5q-77 0 -122.5 43.5t-45.5 134.5v47h-69v85h69v96h-107z "></glyph>
      <glyph glyph-name="Utilde" unicode="Ũ" d="M64 710h110v-434q0 -89 51 -136t136 -47t136 47t51 136v434h110v-437q0 -65 -20 -118t-58.5 -90t-93.5 -57t-125 -20t-125 20t-93 57t-58.5 90t-20.5 118v437zM300 893q24 0 41 -8t30.5 -17t24.5 -17t23 -8t18 9t6 24v6.5t-1 7.5h70q1 -5 1 -10v-10q0 -46 -24 -72.5 t-66 -26.5q-24 0 -41.5 8t-31 17t-24.5 17t-22 8t-18 -8t-7 -25v-6.5t1 -7.5h-70q-1 5 -1 9v9q0 47 23.5 74t67.5 27z"></glyph>
      <glyph glyph-name="utilde" unicode="ũ" d="M63 484h105v-269q0 -132 119 -132q123 0 123 132v269h105v-484h-105l5 89h-25q-5 -17 -16 -35t-29.5 -32.5t-45 -24t-61.5 -9.5q-83 0 -129 52.5t-46 146.5v297zM228 667q24 0 41 -8t30.5 -17t24.5 -17t23 -8t18 9t6 24v6.5t-1 7.5h70q1 -5 1 -10v-10q0 -46 -24 -72.5 t-66 -26.5q-24 0 -41.5 8t-31 17t-24.5 17t-22 8t-18 -8t-7 -25v-6.5t1 -7.5h-70q-1 5 -1 9v9q0 47 23.5 74t67.5 27z"></glyph>
      <glyph glyph-name="Umacron" unicode="Ū" d="M64 273v437h110v-434q0 -89 51 -136t136 -47t136 47t51 136v434h110v-437q0 -65 -20 -118t-58.5 -90t-93.5 -57t-125 -20t-125 20t-93 57t-58.5 90t-20.5 118zM213 809v75h295v-75h-295z"></glyph>
      <glyph glyph-name="umacron" unicode="ū" d="M168 484v-269q0 -132 119 -132q123 0 123 132v269h105v-484h-105l5 89h-25q-5 -17 -16 -35t-29.5 -32.5t-45 -24t-61.5 -9.5q-83 0 -129 52.5t-46 146.5v297h105zM141 658h295v-75h-295v75z"></glyph>
      <glyph glyph-name="Ubreve" unicode="Ŭ" d="M174 710v-434q0 -89 51 -136t136 -47t136 47t51 136v434h110v-437q0 -65 -20 -118t-58.5 -90t-93.5 -57t-125 -20t-125 20t-93 57t-58.5 90t-20.5 118v437h110zM304 928q0 -32 15.5 -51t41.5 -19t41.5 19t15.5 51h75q0 -63 -36 -100.5t-96 -37.5t-96 37.5t-36 100.5h75z "></glyph>
      <glyph glyph-name="ubreve" unicode="ŭ" d="M63 484h105v-269q0 -132 119 -132q123 0 123 132v269h105v-484h-105l5 89h-25q-5 -17 -16 -35t-29.5 -32.5t-45 -24t-61.5 -9.5q-83 0 -129 52.5t-46 146.5v297zM232 702q0 -32 15.5 -51t41.5 -19t41.5 19t15.5 51h75q0 -63 -36 -100.5t-96 -37.5t-96 37.5t-36 100.5h75z "></glyph>
      <glyph glyph-name="Uring" unicode="Ů" d="M64 710h110v-434q0 -89 51 -136t136 -47t136 47t51 136v434h110v-437q0 -65 -20 -118t-58.5 -90t-93.5 -57t-125 -20t-125 20t-93 57t-58.5 90t-20.5 118v437zM268 853q0 39 27 66t66 27t66 -27t27 -66t-27 -66t-66 -27t-66 27t-27 66zM320 853q0 -18 12 -29.5t29 -11.5 t29 11.5t12 29.5t-12 29.5t-29 11.5t-29 -11.5t-12 -29.5z"></glyph>
      <glyph glyph-name="uring" unicode="ů" d="M63 484h105v-269q0 -132 119 -132q123 0 123 132v269h105v-484h-105l5 89h-25q-5 -17 -16 -35t-29.5 -32.5t-45 -24t-61.5 -9.5q-83 0 -129 52.5t-46 146.5v297zM196 627q0 39 27 66t66 27t66 -27t27 -66t-27 -66t-66 -27t-66 27t-27 66zM248 627q0 -18 12 -29.5 t29 -11.5t29 11.5t12 29.5t-12 29.5t-29 11.5t-29 -11.5t-12 -29.5z"></glyph>
      <glyph glyph-name="Uhungarumlaut" unicode="Ű" d="M64 273v437h110v-434q0 -89 51 -136t136 -47t136 47t51 136v434h110v-437q0 -65 -20 -118t-58.5 -90t-93.5 -57t-125 -20t-125 20t-93 57t-58.5 90t-20.5 118zM469 936h91l-91 -145h-77zM241 791l77 145h91l-91 -145h-77z"></glyph>
      <glyph glyph-name="uhungarumlaut" unicode="ű" d="M168 484v-269q0 -132 119 -132q123 0 123 132v269h105v-484h-105l5 89h-25q-5 -17 -16 -35t-29.5 -32.5t-45 -24t-61.5 -9.5q-83 0 -129 52.5t-46 146.5v297h105zM397 710h91l-91 -145h-77zM169 565l77 145h91l-91 -145h-77z"></glyph>
      <glyph glyph-name="Uogonek" unicode="Ų" d="M174 710v-434q0 -89 51 -136t136 -47t136 47t51 136v434h110v-437q0 -115 -61 -189t-172 -91q-24 -17 -37 -39t-13 -41q0 -17 11 -29t35 -12q19 0 38 8l11 -70q-16 -11 -36 -15.5t-41 -4.5q-47 0 -73 26.5t-26 64.5q0 26 17 55t49 52q-69 0 -124 20t-93.5 57t-58.5 90 t-20 118v437h110z"></glyph>
      <glyph glyph-name="uogonek" unicode="ų" d="M63 484h105v-269q0 -132 119 -132q123 0 123 132v269h105v-484q-29 -17 -45 -41.5t-16 -45.5q0 -17 11 -29t35 -12q19 0 38 8l11 -70q-16 -11 -36 -15.5t-41 -4.5q-47 0 -73 26.5t-26 64.5q0 30 21.5 62.5t63.5 56.5h-48l5 89h-25q-5 -17 -16 -35t-29.5 -32.5t-45 -24 t-61.5 -9.5q-83 0 -129 52.5t-46 146.5v297z"></glyph>
      <glyph glyph-name="Wcircumflex" unicode="Ŵ" d="M12 710h113l96 -428q9 -39 15.5 -67.5t11.5 -50.5t8 -39t5 -33h25q2 16 4.5 32.5t7 38.5t11 51t16.5 69l103 427h147l103 -427q10 -40 16.5 -69t11 -51t7 -38.5t4.5 -32.5h25q2 16 5 33t8 39t11.5 50.5t15.5 67.5l96 428h113l-162 -710h-190l-80 335q-4 20 -11 58t-14 81 t-13 84t-9 65h-21q-3 -24 -9 -65t-13 -84t-13.5 -81t-11.5 -58l-80 -335h-190zM351 786l114 120h94l114 -120h-97l-59 70h-10l-59 -70h-97z"></glyph>
      <glyph glyph-name="wcircumflex" unicode="ŵ" d="M10 484h111l57 -237q5 -19 10.5 -40.5t11 -42.5t9 -40.5t4.5 -34.5h25q1 15 5 34.5t9 41t11 43t10 39.5l57 237h138l57 -237q5 -18 10.5 -39.5l11 -43t9 -41t4.5 -34.5h25q1 15 5 34.5t9 40.5t11 42.5t10 40.5l57 237h111l-137 -484h-152l-63 221q-3 12 -7.5 32 t-8.5 43.5t-7 47.5t-4 42h-20q-1 -18 -4 -42t-7 -47.5t-8.5 -43.5t-7.5 -32l-63 -221h-152zM238 560l114 120h94l114 -120h-97l-59 70h-10l-59 -70h-97z"></glyph>
      <glyph glyph-name="Ycircumflex" unicode="Ŷ" d="M138 710l131 -243q13 -23 25 -55t16 -64h30q4 32 16 64t25 55l131 243h126l-258 -468v-242h-110v242l-258 468h126zM164 786l114 120h94l114 -120h-97l-59 70h-10l-59 -70h-97z"></glyph>
      <glyph glyph-name="ycircumflex" unicode="ŷ" d="M27 -84q6 -6 14.5 -9.5t17.5 -5.5t17 -3t13 -1q67 0 120 123l-199 464h115l77 -197q20 -50 31.5 -94t13.5 -74h25q2 30 13.5 74t31.5 94l77 197h114l-210 -488q-25 -58 -50 -96t-50.5 -60t-52 -31t-54.5 -9q-22 0 -45 5t-48 18zM210 680h94l114 -120h-97l-59 70h-10 l-59 -70h-97z"></glyph>
      <glyph glyph-name="Ydieresis" unicode="Ÿ" d="M138 710l131 -243q13 -23 25 -55t16 -64h30q4 32 16 64t25 55l131 243h126l-258 -468v-242h-110v242l-258 468h126zM462 887v-94h-106v94h106zM188 793v94h106v-94h-106z"></glyph>
      <glyph glyph-name="Zacute" unicode="Ź" d="M40 105l341 425q20 26 35.5 40.5t35.5 29.5l-14 24q-19 -8 -41 -13.5t-57 -5.5h-287v105h526v-98l-347 -432q-20 -25 -35.5 -39t-38.5 -31l13 -25q19 8 43 14t59 6h314v-105h-547v105zM264 791l77 145h119l-119 -145h-77z"></glyph>
      <glyph glyph-name="zacute" unicode="ź" d="M243 325q17 18 38 32.5t43 25.5l-12 26q-19 -8 -47.5 -13.5t-63.5 -5.5h-159v94h388v-86l-211 -239q-17 -20 -38 -33.5t-43 -24.5l12 -26q19 8 47.5 13.5t63.5 5.5h187v-94h-416v86zM188 565l77 145h119l-119 -145h-77z"></glyph>
      <glyph glyph-name="Zdotaccent" unicode="Ż" d="M40 105l341 425q20 26 35.5 40.5t35.5 29.5l-14 24q-19 -8 -41 -13.5t-57 -5.5h-287v105h526v-98l-347 -432q-20 -25 -35.5 -39t-38.5 -31l13 -25q19 8 43 14t59 6h314v-105h-547v105zM373 890v-100h-115v100h115z"></glyph>
      <glyph glyph-name="zdotaccent" unicode="ż" d="M243 325q17 18 38 32.5t43 25.5l-12 26q-19 -8 -47.5 -13.5t-63.5 -5.5h-159v94h388v-86l-211 -239q-17 -20 -38 -33.5t-43 -24.5l12 -26q19 8 47.5 13.5t63.5 5.5h187v-94h-416v86zM297 664v-100h-115v100h115z"></glyph>
      <glyph glyph-name="Zcaron" unicode="Ž" d="M40 0v105l341 425q20 26 35.5 40.5t35.5 29.5l-14 24q-19 -8 -41 -13.5t-57 -5.5h-287v105h526v-98l-347 -432q-20 -25 -35.5 -39t-38.5 -31l13 -25q19 8 43 14t59 6h314v-105h-547zM252 906l59 -70h10l59 70h97l-114 -120h-94l-114 120h97z"></glyph>
      <glyph glyph-name="zcaron" unicode="ž" d="M243 325q17 18 38 32.5t43 25.5l-12 26q-19 -8 -47.5 -13.5t-63.5 -5.5h-159v94h388v-86l-211 -239q-17 -20 -38 -33.5t-43 -24.5l12 -26q19 8 47.5 13.5t63.5 5.5h187v-94h-416v86zM176 680l59 -70h10l59 70h97l-114 -120h-94l-114 120h97z"></glyph>
      <glyph glyph-name="Gcaron" unicode="Ǧ" d="M44 345q0 81 27.5 150t77 119.5t119 79t153.5 28.5q91 0 168.5 -35t123.5 -101l-86 -77q-35 51 -89.5 79.5t-122.5 28.5q-58 0 -105.5 -21.5t-81 -58.5t-51.5 -86.5t-18 -104.5q0 -56 18.5 -103t53 -81.5t83 -53.5t108.5 -19q57 0 106 27.5t75 72.5v26q0 18 3 30.5 t19 29.5l-13 18q-11 -6 -33 -12.5t-47 -6.5h-126v99h307v-373h-103v90h-17q-23 -47 -70.5 -74.5t-122.5 -27.5q-77 0 -142 24.5t-112.5 71t-74.5 112.5t-27 149zM355 906l59 -70h10l59 70h97l-114 -120h-94l-114 120h97z"></glyph>
      <glyph glyph-name="gcaron" unicode="ǧ" d="M273 496q59 0 98 -29t54 -71h25l-10 88h105v-432q0 -53 -18 -99t-52 -80t-83 -53.5t-112 -19.5q-70 0 -124.5 22.5t-85.5 56.5l62 82q25 -33 66.5 -53.5t84.5 -20.5q33 0 63 12.5t53.5 35t37 53.5t13.5 67v33h-25q-15 -42 -54 -71t-98 -29q-47 0 -89.5 17.5t-74.5 50 t-50.5 79.5t-18.5 107t18.5 107t50.5 79.5t74.5 50t89.5 17.5zM145 242q0 -34 11 -63t30.5 -50t46.5 -32.5t60 -11.5t60.5 11.5t46.5 32.5t29.5 50t10.5 63t-10.5 63t-29.5 50t-46.5 32.5t-60.5 11.5t-60 -11.5t-46.5 -32.5t-30.5 -50t-11 -63zM239 680l59 -70h10l59 70h97 l-114 -120h-94l-114 120h97z"></glyph>
      <glyph glyph-name="uni01EA" unicode="Ǫ" d="M406 722q79 0 145.5 -27.5t114.5 -76.5t75 -116t27 -147q0 -72 -22 -133.5t-62 -109.5t-95.5 -79t-122.5 -41q-18 -16 -27.5 -34t-9.5 -35t11 -29t35 -12q19 0 38 8l11 -70q-16 -11 -36 -15.5t-41 -4.5q-47 0 -73 26.5t-26 64.5q0 24 14 49.5t40 47.5q-78 1 -143.5 28.5 t-113 76.5t-74.5 116t-27 146q0 80 27 147t75 116t114.5 76.5t145.5 27.5zM406 93q54 0 100 19.5t79 54.5t52 83t19 105t-19 105t-52 83t-79 54.5t-100 19.5t-100 -19.5t-79 -54.5t-52 -83t-19 -105t19 -105t52 -83t79 -54.5t100 -19.5z"></glyph>
      <glyph glyph-name="uni01EB" unicode="ǫ" d="M296 496q57 0 104 -19t81 -52.5t52.5 -80t18.5 -102.5q0 -49 -14.5 -91t-41 -74t-63.5 -54t-83 -30q-18 -17 -27.5 -35t-9.5 -35t11 -29t35 -12q19 0 38 8l11 -70q-16 -11 -36 -15.5t-41 -4.5q-47 0 -73 26.5t-26 64.5q0 24 14 49.5t40 47.5q-55 2 -100.5 21.5t-77.5 53 t-50 79.5t-18 100q0 56 18.5 102.5t52.5 80t81 52.5t104 19zM296 82q34 0 62 12t48.5 33t31.5 50.5t11 64.5t-11 64.5t-31.5 50.5t-48.5 33t-62 12t-62 -12t-48 -33t-31.5 -50.5t-11.5 -64.5t11.5 -64.5t31.5 -50.5t48 -33t62 -12z"></glyph>
      <glyph glyph-name="Oslashacute" unicode="Ǿ" d="M406 722q99 0 177 -43l59 84l68 -47l-59 -84q55 -50 86 -120.5t31 -156.5q0 -79 -27 -146.5t-75.5 -116.5t-115 -76.5t-144.5 -27.5q-49 0 -93 11t-83 31l-57 -82l-68 48l57 81q-56 50 -87 121t-31 157q0 80 27 147t75 116t114.5 76.5t145.5 27.5zM156 355 q0 -57 18.5 -104t51.5 -82l295 421q-26 13 -54.5 20t-60.5 7q-54 0 -100 -19.5t-79 -54.5t-52 -83t-19 -105zM406 93q54 0 100 19.5t79 54.5t52 83t19 105q0 56 -18.5 103t-50.5 82l-294 -421q50 -26 113 -26zM354 791l77 145h119l-119 -145h-77z"></glyph>
      <glyph glyph-name="oslashacute" unicode="ǿ" d="M296 496q39 0 73 -9l26 56l70 -31l-26 -55q54 -32 83.5 -88t29.5 -127q0 -55 -18.5 -102t-52.5 -80.5t-81 -52.5t-104 -19q-39 0 -72 9l-26 -56l-70 32l25 53q-53 33 -83 88.5t-30 127.5q0 56 18.5 102.5t52.5 80t81 52.5t104 19zM143 242q0 -39 14 -71t39 -54l132 282 q-15 3 -32 3q-34 0 -62 -12t-48 -33t-31.5 -50.5t-11.5 -64.5zM265 85q15 -3 31 -3q34 0 62 12t48.5 33t31.5 50.5t11 64.5q0 39 -13.5 71t-38.5 53zM321 710h119l-119 -145h-77z"></glyph>
      <glyph glyph-name="uni0218" unicode="Ș" d="M90 196q14 -16 34.5 -34.5t48.5 -34.5t63.5 -26t80.5 -10q40 0 69.5 8.5t49 22.5t29.5 32.5t10 39.5q0 25 -12 42.5t-32.5 30t-48 20.5t-58.5 15q-45 10 -92.5 22t-86.5 33.5t-64 57t-25 92.5q0 50 20 90t56 67.5t85 42.5t107 15q83 0 150 -29t105 -81l-76 -81 q-9 14 -23 29t-35.5 28.5t-51 22t-70.5 8.5q-75 0 -116.5 -29t-41.5 -74q0 -28 15.5 -46.5t42 -30.5t60 -20.5t69.5 -16.5q42 -10 83.5 -22.5t74.5 -34t53.5 -55t20.5 -85.5q0 -50 -20.5 -90t-56.5 -68.5t-86.5 -43.5t-110.5 -15q-48 0 -92 9.5t-80.5 25.5t-65.5 37t-47 44z M380 -58v-93l-53 -82h-43l28 55q4 6 7 12.5t9 11.5l-9 11q-6 -4 -14 -6t-14 -2h-17v93h106z"></glyph>
      <glyph glyph-name="uni0219" unicode="ș" d="M79 155q26 -41 67 -60.5t78 -19.5q7 0 23.5 1.5t33.5 7t30 16t13 29.5q0 23 -20 34.5t-50.5 19.5t-66 16t-66 23.5t-50.5 43t-20 73.5q0 72 50 114.5t136 42.5q49 0 97 -16.5t83 -55.5l-69 -77q-38 62 -118 62q-42 0 -62.5 -14.5t-20.5 -39.5q0 -26 20 -39t50.5 -21 t66 -15.5t66 -22.5t50.5 -41.5t20 -72.5q0 -73 -52.5 -114t-146.5 -41q-65 0 -118 21t-83 63zM179 -58h106v-93l-53 -82h-43l28 55q4 6 7 12.5t9 11.5l-9 11q-6 -4 -14 -6t-14 -2h-17v93z"></glyph>
      <glyph glyph-name="uni021A" unicode="Ț" d="M613 710v-105h-138q-35 0 -55.5 9t-35.5 19l-19 -15q3 -7 5 -18t3 -23.5t1.5 -23.5t0.5 -18v-535h-110v535q0 7 0.5 18t1.5 23.5t3 23.5t5 18l-19 15q-16 -11 -38 -19.5t-57 -8.5h-135v105h587zM378 -58v-93l-53 -82h-43l28 55q4 6 7 12.5t9 11.5l-9 11q-6 -4 -14 -6 t-14 -2h-17v93h106z"></glyph>
      <glyph glyph-name="uni021B" unicode="ț" d="M9 394v90h107v196h105v-126q0 -18 -9 -39t-26 -32l17 -19q12 8 25.5 14t33.5 6h162v-90h-203v-210q0 -55 20.5 -79.5t57.5 -24.5q31 0 67.5 18t63.5 46l39 -84q-40 -35 -87.5 -53.5t-97.5 -18.5q-77 0 -122.5 43.5t-45.5 134.5v228h-107zM234 -151v93h106v-93l-53 -82 h-43l28 55q4 6 7 12.5t9 11.5l-9 11q-6 -4 -14 -6t-14 -2h-17z"></glyph>
      <glyph glyph-name="uni0232" unicode="Ȳ" d="M138 710l131 -243q13 -23 25 -55t16 -64h30q4 32 16 64t25 55l131 243h126l-258 -468v-242h-110v242l-258 468h126zM177 884h295v-75h-295v75z"></glyph>
      <glyph glyph-name="uni0233" unicode="ȳ" d="M27 -84q6 -6 14.5 -9.5t17.5 -5.5t17 -3t13 -1q67 0 120 123l-199 464h115l77 -197q20 -50 31.5 -94t13.5 -74h25q2 30 13.5 74t31.5 94l77 197h114l-210 -488q-25 -58 -50 -96t-50.5 -60t-52 -31t-54.5 -9q-22 0 -45 5t-48 18zM109 658h295v-75h-295v75z"></glyph>
      <glyph glyph-name="uni0237" unicode="ȷ" d="M9 -200v102q29 0 43.5 18.5t14.5 65.5v498h105v-501q0 -85 -42.5 -134t-120.5 -49z"></glyph>
      <glyph glyph-name="circumflex" unicode="ˆ" d="M30 560l114 120h94l114 -120h-97l-59 70h-10l-59 -70h-97z"></glyph>
      <glyph glyph-name="caron" unicode="ˇ" d="M127 680l59 -70h10l59 70h97l-114 -120h-94l-114 120h97z"></glyph>
      <glyph glyph-name="breve" unicode="˘" d="M33 702h75q0 -32 15.5 -51t41.5 -19t41.5 19t15.5 51h75q0 -63 -36 -100.5t-96 -37.5t-96 37.5t-36 100.5z"></glyph>
      <glyph glyph-name="dotaccent" unicode="˙" d="M50 564v100h115v-100h-115z"></glyph>
      <glyph glyph-name="ring" unicode="˚" d="M80 627q0 39 27 66t66 27t66 -27t27 -66t-27 -66t-66 -27t-66 27t-27 66zM132 627q0 -18 12 -29.5t29 -11.5t29 11.5t12 29.5t-12 29.5t-29 11.5t-29 -11.5t-12 -29.5z"></glyph>
      <glyph glyph-name="ogonek" unicode="˛" d="M30 -119q0 30 21.5 62.5t63.5 56.5h57q-29 -17 -45 -41.5t-16 -45.5q0 -17 11 -29t35 -12q19 0 38 8l11 -70q-16 -11 -36 -15.5t-41 -4.5q-47 0 -73 26.5t-26 64.5z"></glyph>
      <glyph glyph-name="tilde" unicode="˜" d="M40 566q0 47 23.5 74t67.5 27q24 0 41 -8t30.5 -17t24.5 -17t23 -8t18 9t6 24v6.5t-1 7.5h70q1 -5 1 -10v-10q0 -46 -24 -72.5t-66 -26.5q-24 0 -41.5 8t-31 17t-24.5 17t-22 8t-18 -8t-7 -25v-6.5t1 -7.5h-70q-1 5 -1 9v9z"></glyph>
      <glyph glyph-name="hungarumlaut" unicode="˝" d="M201 565l77 145h91l-91 -145h-77zM50 565l77 145h91l-91 -145h-77z"></glyph>
      <glyph glyph-name="gravecomb" unicode="̀" d="M-97 565l-119 145h119l77 -145h-77z"></glyph>
      <glyph glyph-name="acutecomb" unicode="́" d="M-139 710h119l-119 -145h-77z"></glyph>
      <glyph glyph-name="uni0302" unicode="̂" d="M-352 560l114 120h94l114 -120h-97l-59 70h-10l-59 -70h-97z"></glyph>
      <glyph glyph-name="tildecomb" unicode="̃" d="M-344 566q0 47 23.5 74t67.5 27q24 0 41 -8t30.5 -17t24.5 -17t23 -8t18 9t6 24v6.5t-1 7.5h70q1 -5 1 -10v-10q0 -46 -24 -72.5t-66 -26.5q-24 0 -41.5 8t-31 17t-24.5 17t-22 8t-18 -8t-7 -25v-6.5t1 -7.5h-70q-1 5 -1 9v9z"></glyph>
      <glyph glyph-name="uni0304" unicode="̄" d="M-325 658h295v-75h-295v75z"></glyph>
      <glyph glyph-name="uni0306" unicode="̆" d="M-297 702h75q0 -32 15.5 -51t41.5 -19t41.5 19t15.5 51h75q0 -63 -36 -100.5t-96 -37.5t-96 37.5t-36 100.5z"></glyph>
      <glyph glyph-name="uni0307" unicode="̇" d="M-165 564v100h115v-100h-115z"></glyph>
      <glyph glyph-name="uni0308" unicode="̈" d="M-186 661h106v-94h-106v94zM-248 661v-94h-106v94h106z"></glyph>
      <glyph glyph-name="uni030A" unicode="̊" d="M-266 627q0 39 27 66t66 27t66 -27t27 -66t-27 -66t-66 -27t-66 27t-27 66zM-214 627q0 -18 12 -29.5t29 -11.5t29 11.5t12 29.5t-12 29.5t-29 11.5t-29 -11.5t-12 -29.5z"></glyph>
      <glyph glyph-name="uni030C" unicode="̌" d="M-255 680l59 -70h10l59 70h97l-114 -120h-94l-114 120h97z"></glyph>
      <glyph glyph-name="uni0326" unicode="̦" d="M-55 -58v-93l-53 -82h-43l28 55q4 6 7 12.5t9 11.5l-9 11q-6 -4 -14 -6t-14 -2h-17v93h106z"></glyph>
      <glyph glyph-name="uni0327" unicode="̧" d="M-252 -204l31 59q8 -8 25.5 -15t37.5 -7q51 0 51 34q0 16 -12.5 23.5t-30.5 7.5t-34 -6l-42 26l37 88h57l-25 -65l5 -4q16 6 35 6q33 0 60 -19t27 -58q0 -43 -36 -70.5t-92 -27.5q-26 0 -51 7t-43 21z"></glyph>
      <glyph glyph-name="uni0328" unicode="̨" d="M-206 -119q0 30 21.5 62.5t63.5 56.5h57q-29 -17 -45 -41.5t-16 -45.5q0 -17 11 -29t35 -12q19 0 38 8l11 -70q-16 -11 -36 -15.5t-41 -4.5q-47 0 -73 26.5t-26 64.5z"></glyph>
      <glyph glyph-name="Wgrave" unicode="Ẁ" d="M12 710h113l96 -428q9 -39 15.5 -67.5t11.5 -50.5t8 -39t5 -33h25q2 16 4.5 32.5t7 38.5t11 51t16.5 69l103 427h147l103 -427q10 -40 16.5 -69t11 -51t7 -38.5t4.5 -32.5h25q2 16 5 33t8 39t11.5 50.5t15.5 67.5l96 428h113l-162 -710h-190l-80 335q-4 20 -11 58t-14 81 t-13 84t-9 65h-21q-3 -24 -9 -65t-13 -84t-13.5 -81t-11.5 -58l-80 -335h-190zM364 936h119l77 -145h-77z"></glyph>
      <glyph glyph-name="wgrave" unicode="ẁ" d="M10 484h111l57 -237q5 -19 10.5 -40.5t11 -42.5t9 -40.5t4.5 -34.5h25q1 15 5 34.5t9 41t11 43t10 39.5l57 237h138l57 -237q5 -18 10.5 -39.5l11 -43t9 -41t4.5 -34.5h25q1 15 5 34.5t9 40.5t11 42.5t10 40.5l57 237h111l-137 -484h-152l-63 221q-3 12 -7.5 32 t-8.5 43.5t-7 47.5t-4 42h-20q-1 -18 -4 -42t-7 -47.5t-8.5 -43.5t-7.5 -32l-63 -221h-152zM251 710h119l77 -145h-77z"></glyph>
      <glyph glyph-name="Wacute" unicode="Ẃ" d="M12 710h113l96 -428q9 -39 15.5 -67.5t11.5 -50.5t8 -39t5 -33h25q2 16 4.5 32.5t7 38.5t11 51t16.5 69l103 427h147l103 -427q10 -40 16.5 -69t11 -51t7 -38.5t4.5 -32.5h25q2 16 5 33t8 39t11.5 50.5t15.5 67.5l96 428h113l-162 -710h-190l-80 335q-4 20 -11 58t-14 81 t-13 84t-9 65h-21q-3 -24 -9 -65t-13 -84t-13.5 -81t-11.5 -58l-80 -335h-190zM460 791l77 145h119l-119 -145h-77z"></glyph>
      <glyph glyph-name="wacute" unicode="ẃ" d="M10 484h111l57 -237q5 -19 10.5 -40.5t11 -42.5t9 -40.5t4.5 -34.5h25q1 15 5 34.5t9 41t11 43t10 39.5l57 237h138l57 -237q5 -18 10.5 -39.5l11 -43t9 -41t4.5 -34.5h25q1 15 5 34.5t9 40.5t11 42.5t10 40.5l57 237h111l-137 -484h-152l-63 221q-3 12 -7.5 32 t-8.5 43.5t-7 47.5t-4 42h-20q-1 -18 -4 -42t-7 -47.5t-8.5 -43.5t-7.5 -32l-63 -221h-152zM347 565l77 145h119l-119 -145h-77z"></glyph>
      <glyph glyph-name="Wdieresis" unicode="Ẅ" d="M12 710h113l96 -428q9 -39 15.5 -67.5t11.5 -50.5t8 -39t5 -33h25q2 16 4.5 32.5t7 38.5t11 51t16.5 69l103 427h147l103 -427q10 -40 16.5 -69t11 -51t7 -38.5t4.5 -32.5h25q2 16 5 33t8 39t11.5 50.5t15.5 67.5l96 428h113l-162 -710h-190l-80 335q-4 20 -11 58t-14 81 t-13 84t-9 65h-21q-3 -24 -9 -65t-13 -84t-13.5 -81t-11.5 -58l-80 -335h-190zM543 887h106v-94h-106v94zM375 887h106v-94h-106v94z"></glyph>
      <glyph glyph-name="wdieresis" unicode="ẅ" d="M10 484h111l57 -237q5 -19 10.5 -40.5t11 -42.5t9 -40.5t4.5 -34.5h25q1 15 5 34.5t9 41t11 43t10 39.5l57 237h138l57 -237q5 -18 10.5 -39.5l11 -43t9 -41t4.5 -34.5h25q1 15 5 34.5t9 40.5t11 42.5t10 40.5l57 237h111l-137 -484h-152l-63 221q-3 12 -7.5 32 t-8.5 43.5t-7 47.5t-4 42h-20q-1 -18 -4 -42t-7 -47.5t-8.5 -43.5t-7.5 -32l-63 -221h-152zM430 661h106v-94h-106v94zM262 567v94h106v-94h-106z"></glyph>
      <glyph glyph-name="uni1EBC" unicode="Ẽ" d="M569 710v-105h-321q-14 0 -36.5 2t-36.5 8l-11 -19q8 -9 12 -16.5t6 -17t2 -22v-29.5q0 -34 -2 -51.5t-18 -34.5l11 -19q14 6 36.5 8t36.5 2h281v-105h-281q-14 0 -36.5 2t-36.5 8l-11 -19q16 -17 18 -38.5t2 -57.5q0 -35 -2 -55t-18 -37l11 -19q14 6 36.5 8t36.5 2h331 v-105h-505v710h495zM179 792q0 47 23.5 74t67.5 27q24 0 41 -8t30.5 -17t24.5 -17t23 -8t18 9t6 24v6.5t-1 7.5h70q1 -5 1 -10v-10q0 -46 -24 -72.5t-66 -26.5q-24 0 -41.5 8t-31 17t-24.5 17t-22 8t-18 -8t-7 -25v-6.5t1 -7.5h-70q-1 5 -1 9v9z"></glyph>
      <glyph glyph-name="uni1EBD" unicode="ẽ" d="M40 239q0 51 16.5 97.5t48 82t77.5 56.5t105 21q62 0 107.5 -22t74 -60.5t39.5 -89t3 -107.5h-366q9 -61 51.5 -98t109.5 -37q28 0 52.5 7t44.5 17t35 22.5t24 22.5l51 -79q-10 -9 -27.5 -23.5t-43 -28t-60.5 -23t-82 -9.5q-61 0 -109 18.5t-81.5 51.5t-51.5 79.5 t-18 101.5zM132 566q0 47 23.5 74t67.5 27q24 0 41 -8t30.5 -17t24.5 -17t23 -8t18 9t6 24v6.5t-1 7.5h70q1 -5 1 -10v-10q0 -46 -24 -72.5t-66 -26.5q-24 0 -41.5 8t-31 17t-24.5 17t-22 8t-18 -8t-7 -25v-6.5t1 -7.5h-70q-1 5 -1 9v9zM147 279l14 -6q7 5 40.5 12.5 t80.5 7.5q29 0 49.5 -2t33.5 -5t20.5 -6t10.5 -6l14 5q0 32 -10 56.5t-27 41t-40 25t-49 8.5q-21 0 -44.5 -8t-43 -24t-33 -40.5t-16.5 -58.5z"></glyph>
      <glyph glyph-name="Ygrave" unicode="Ỳ" d="M12 710h126l131 -243q13 -23 25 -55t16 -64h30q4 32 16 64t25 55l131 243h126l-258 -468v-242h-110v242zM296 936l77 -145h-77l-119 145h119z"></glyph>
      <glyph glyph-name="ygrave" unicode="ỳ" d="M27 -84q6 -6 14.5 -9.5t17.5 -5.5t17 -3t13 -1q67 0 120 123l-199 464h115l77 -197q20 -50 31.5 -94t13.5 -74h25q2 30 13.5 74t31.5 94l77 197h114l-210 -488q-25 -58 -50 -96t-50.5 -60t-52 -31t-54.5 -9q-22 0 -45 5t-48 18zM109 710h119l77 -145h-77z"></glyph>
      <glyph glyph-name="uni1EF8" unicode="Ỹ" d="M138 710l131 -243q13 -23 25 -55t16 -64h30q4 32 16 64t25 55l131 243h126l-258 -468v-242h-110v242l-258 468h126zM264 893q24 0 41 -8t30.5 -17t24.5 -17t23 -8t18 9t6 24v6.5t-1 7.5h70q1 -5 1 -10v-10q0 -46 -24 -72.5t-66 -26.5q-24 0 -41.5 8t-31 17t-24.5 17 t-22 8t-18 -8t-7 -25v-6.5t1 -7.5h-70q-1 5 -1 9v9q0 47 23.5 74t67.5 27z"></glyph>
      <glyph glyph-name="uni1EF9" unicode="ỹ" d="M27 -84q6 -6 14.5 -9.5t17.5 -5.5t17 -3t13 -1q67 0 120 123l-199 464h115l77 -197q20 -50 31.5 -94t13.5 -74h25q2 30 13.5 74t31.5 94l77 197h114l-210 -488q-25 -58 -50 -96t-50.5 -60t-52 -31t-54.5 -9q-22 0 -45 5t-48 18zM105 566q0 47 23.5 74t67.5 27q24 0 41 -8 t30.5 -17t24.5 -17t23 -8t18 9t6 24v6.5t-1 7.5h70q1 -5 1 -10v-10q0 -46 -24 -72.5t-66 -26.5q-24 0 -41.5 8t-31 17t-24.5 17t-22 8t-18 -8t-7 -25v-6.5t1 -7.5h-70q-1 5 -1 9v9z"></glyph>
      <glyph glyph-name="endash" unicode="–" d="M55 343h488v-91h-488v91z"></glyph>
      <glyph glyph-name="emdash" unicode="—" d="M55 343h788v-91h-788v91z"></glyph>
      <glyph glyph-name="quoteleft" unicode="‘" d="M35 560l64 150h47l-33 -114q-2 -6 -6.5 -15t-12.5 -17l10 -11q8 5 15 6t11 1h23v-118h-118v118z"></glyph>
      <glyph glyph-name="quoteright" unicode="’" d="M158 710v-118l-64 -150h-47l33 114q2 6 6.5 15t12.5 17l-10 11q-8 -5 -15 -6t-11 -1h-23v118h118z"></glyph>
      <glyph glyph-name="quotesinglbase" unicode="‚" d="M178 118v-118l-64 -150h-47l33 114q2 6 6.5 15t12.5 17l-10 11q-8 -5 -15 -6t-11 -1h-23v118h118z"></glyph>
      <glyph glyph-name="quotedblleft" unicode="“" d="M200 445v118l64 150h47l-33 -114q-2 -6 -6.5 -15t-12.5 -17l10 -11q8 5 15 6t11 1h23v-118h-118zM35 560l64 150h47l-33 -114q-2 -6 -6.5 -15t-12.5 -17l10 -11q8 5 15 6t11 1h23v-118h-118v118z"></glyph>
      <glyph glyph-name="quotedblright" unicode="”" d="M205 595v118h118v-118l-64 -150h-47l33 114q2 6 6.5 15t12.5 17l-10 11q-8 -5 -15 -6t-11 -1h-23zM40 592v118h118v-118l-64 -150h-47l33 114q2 6 6.5 15t12.5 17l-10 11q-8 -5 -15 -6t-11 -1h-23z"></glyph>
      <glyph glyph-name="quotedblbase" unicode="„" d="M230 118h118v-118l-64 -150h-47l33 114q2 6 6.5 15t12.5 17l-10 11q-8 -5 -15 -6t-11 -1h-23v118zM178 118v-118l-64 -150h-47l33 114q2 6 6.5 15t12.5 17l-10 11q-8 -5 -15 -6t-11 -1h-23v118h118z"></glyph>
      <glyph glyph-name="dagger" unicode="†" d="M50 496h171v214h87v-214h171v-78h-171v-220h171v-78h-171v-214h-87v214h-171v78h171v220h-171v78z"></glyph>
      <glyph glyph-name="daggerdbl" unicode="‡" d="M221 496v214h87v-214h171v-78h-171v-512h-87v512h-171v78h171z"></glyph>
      <glyph glyph-name="bullet" unicode="•" d="M62 312q0 26 10 48.5t26.5 39t39.5 26.5t48 10q26 0 48.5 -10t39 -26.5t26.5 -39t10 -48.5q0 -25 -10 -48t-26.5 -39.5t-39 -26.5t-48.5 -10q-25 0 -48 10t-39.5 26.5t-26.5 39.5t-10 48z"></glyph>
      <glyph glyph-name="ellipsis" unicode="…" d="M660 118h118v-118h-118v118zM360 118h118v-118h-118v118zM60 118h118v-118h-118v118z"></glyph>
      <glyph glyph-name="perthousand" unicode="‰" d="M60 537q0 40 14 74t38.5 58.5t59 38.5t74.5 14q41 0 75.5 -14t59 -38.5t38.5 -58.5t14 -74t-14 -74t-38.5 -58.5t-59 -38.5t-75.5 -14q-40 0 -74.5 14t-59 38.5t-38.5 58.5t-14 74zM504 173q0 40 14 74t38.5 58.5t59 38.5t74.5 14q41 0 75.5 -14t59 -38.5t38.5 -58.5 t14 -74t-14 -74t-38.5 -58.5t-59 -38.5t-75.5 -14q-40 0 -74.5 14t-59 38.5t-38.5 58.5t-14 74zM934 173q0 40 14 74t38.5 58.5t59 38.5t74.5 14q41 0 75.5 -14t59 -38.5t38.5 -58.5t14 -74t-14 -74t-38.5 -58.5t-59 -38.5t-75.5 -14q-40 0 -74.5 14t-59 38.5t-38.5 58.5 t-14 74zM230 0l411 710h63l-410 -710h-64zM1120 60q48 0 78 31.5t30 81.5t-30 81.5t-78 31.5t-77.5 -31.5t-29.5 -81.5t29.5 -81.5t77.5 -31.5zM583 173q0 -50 29.5 -81.5t77.5 -31.5t78 31.5t30 81.5t-30 81.5t-78 31.5t-77.5 -31.5t-29.5 -81.5zM246 424q48 0 78 31.5 t30 81.5t-30 81.5t-78 31.5t-77.5 -31.5t-29.5 -81.5t29.5 -81.5t77.5 -31.5z"></glyph>
      <glyph glyph-name="guilsinglleft" unicode="‹" d="M200 496h117l-123 -163q-12 -16 -29.5 -29.5t-37.5 -21.5v-20q20 -8 37.5 -21.5t29.5 -29.5l123 -163h-117l-170 224z"></glyph>
      <glyph glyph-name="guilsinglright" unicode="›" d="M159 496l170 -224l-170 -224h-117l123 163q12 16 29.5 29.5t37.5 21.5v20q-20 8 -37.5 21.5t-29.5 29.5l-123 163h117z"></glyph>
      <glyph glyph-name="fraction" unicode="⁄" d="M327 710h86l-259 -710h-86z"></glyph>
      <glyph glyph-name="Euro" unicode="€" d="M37 387v58h120q14 65 46 116t78.5 86t105.5 53.5t126 18.5q92 0 163.5 -33.5t116.5 -93.5l-84 -73q-34 46 -82 70t-113 24q-51 0 -89.5 -13t-68.5 -35.5t-53.5 -54t-44.5 -68.5l13 -12q13 8 28 11.5t38 3.5h231v-58h-305q-1 -8 -1.5 -16t-0.5 -16q0 -10 0.5 -19t1.5 -18 h305v-58h-292q25 -76 86.5 -119t146.5 -43q36 0 70 8t63.5 21.5t54 31.5t40.5 38l59 -88q-14 -24 -42.5 -45t-66.5 -37t-83.5 -25.5t-93.5 -9.5q-58 0 -112 15.5t-100 45.5t-80 74.5t-52 102.5q-3 9 -3.5 19.5t0.5 16.5l-14 11q-12 -8 -26.5 -12.5t-37.5 -4.5h-48v58h112 q0 9 -0.5 18t-0.5 19v16t1 16h-112z"></glyph>
      <glyph glyph-name="uni2116" unicode="№" d="M756 468q0 56 18.5 102.5t52.5 80t81 52.5t104 19t104 -19t81 -52.5t52.5 -80t18.5 -102.5q0 -55 -18.5 -102t-52.5 -80.5t-81 -52.5t-104 -19t-104 19t-81 52.5t-52.5 80.5t-18.5 102zM74 710h115l313 -442q14 -19 26.5 -47.5t22.5 -55.5l27 8q-4 17 -8.5 48.5 t-4.5 82.5v406h110v-710h-115l-313 443q-14 20 -26 48t-23 55l-27 -8q4 -17 8.5 -48.5t4.5 -82.5v-407h-110v710zM1012 308q34 0 62 12t48.5 33t31.5 50.5t11 64.5t-11 64.5t-31.5 50.5t-48.5 33t-62 12t-62 -12t-48 -33t-31.5 -50.5t-11.5 -64.5t11.5 -64.5t31.5 -50.5 t48 -33t62 -12zM786 91h452v-94h-452v94z"></glyph>
      <glyph glyph-name="trademark" unicode="™" d="M542 710l66 -216q5 -17 10 -40t8 -45h14q3 22 8 45t10 40l66 216h117v-368h-64v229q0 20 1 39t7 47l-16 4q-2 -8 -6 -23t-12 -38l-81 -258h-74l-81 258q-8 23 -12 38t-6 23l-17 -4q7 -28 8 -47t1 -39v-229h-64v368h117zM50 710h325v-58h-73q-20 0 -32 4.5t-20 10.5 l-12 -8q5 -8 6 -23.5t1 -23.5v-270h-64v270q0 8 1 23.5t5 23.5l-11 8q-9 -7 -21.5 -11t-32.5 -4h-72v58z"></glyph>
      <glyph glyph-name="arrowleft" unicode="←" d="M336 671l69 -69l-134 -129q-26 -24 -46.5 -37t-43.5 -24l8 -25q23 8 47.5 11.5t54.5 3.5h451v-95l-451 1q-30 0 -54.5 3.5t-47.5 11.5l-8 -25q23 -11 44 -24.5t46 -36.5l134 -129l-69 -69l-316 316z"></glyph>
      <glyph glyph-name="arrowup" unicode="↑" d="M336 722l316 -316l-69 -69l-129 134q-24 26 -37 46.5t-24 43.5l-25 -8q16 -44 16 -102v-451h-97l1 451q0 58 16 102l-25 8q-11 -23 -24.5 -44t-36.5 -46l-129 -134l-69 69z"></glyph>
      <glyph glyph-name="arrowright" unicode="→" d="M481 402q58 0 102 -16l8 25q-23 11 -44 24.5t-46 36.5l-134 129l69 69l316 -316l-316 -316l-69 69l134 129q26 24 46.5 37t43.5 24l-8 25q-44 -16 -102 -16h-451v97z"></glyph>
      <glyph glyph-name="arrowdown" unicode="↓" d="M89 373l129 -134q23 -25 36.5 -46t24.5 -44l25 8q-16 44 -16 102l-1 451h97v-451q0 -58 -16 -102l25 -8q11 23 24 43.5t37 46.5l129 134l69 -69l-316 -316l-316 316z"></glyph>
      <glyph glyph-name="uni2196" unicode="↖" d="M517 623v-97l-186 3q-35 2 -59 7t-48 14l-12 -24q42 -19 83 -60l319 -319l-68 -69l-319 320q-41 41 -60 83l-24 -12q9 -24 14 -48t7 -59l3 -186h-97v447h447z"></glyph>
      <glyph glyph-name="uni2197" unicode="↗" d="M40 140l320 319q41 41 83 60l-12 24q-24 -9 -48 -14t-59 -7l-186 -3v97h447v-447h-97l3 186q2 35 7 59t14 48l-24 12q-19 -42 -60 -83l-319 -319z"></glyph>
      <glyph glyph-name="uni2198" unicode="↘" d="M109 634l318 -320q42 -41 61 -83l23 12q-9 24 -14 48t-6 58l-4 186h98v-446h-447v97l186 -3q35 -2 59 -7t48 -14l12 23q-42 20 -84 61l-319 319z"></glyph>
      <glyph glyph-name="uni2199" unicode="↙" d="M70 528h97l-3 -186q-2 -35 -7 -59t-14 -48l23 -12q20 42 61 84l319 319l69 -69l-320 -318q-41 -42 -83 -61l12 -23q24 9 48 14t58 6l186 4v-98h-446v447z"></glyph>
      <glyph glyph-name="minus" unicode="−" d="M60 321v83h425v-83h-425z"></glyph>
      <glyph glyph-name="approxequal" unicode="≈" d="M40 202q0 71 32.5 109t92.5 38q35 0 60 -11.5t46 -25t40 -25t43 -11.5q25 0 35 15t9 50l78 2q2 -69 -31 -107t-94 -38q-35 0 -61.5 11.5t-48 25t-40.5 25t-39 11.5q-44 0 -44 -69h-78zM40 372q0 71 32.5 109t92.5 38q35 0 60 -11.5t46 -25t40 -25t43 -11.5q25 0 35 15 t9 50l78 2q2 -69 -31 -107t-94 -38q-35 0 -61.5 11.5t-48 25t-40.5 25t-39 11.5q-44 0 -44 -69h-78z"></glyph>
      <glyph glyph-name="notequal" unicode="≠" d="M50 238v83h144l44 85h-188v83h230l54 105l65 -33l-15 -30q-4 -8 -11.5 -19.5t-20.5 -23.5l14 -18q11 8 25 13.5t33 5.5h51v-83h-155l-44 -85h199v-83h-242l-59 -116l-65 33l22 41q4 8 11.5 19.5t20.5 23.5l-14 18q-11 -8 -25 -13.5t-33 -5.5h-41z"></glyph>
      <glyph glyph-name="lessequal" unicode="≤" d="M505 478v-80l-268 -57q-26 -5 -53 -7t-41 -2v-26q14 0 41 -2t53 -7l268 -57v-80l-425 98v122zM80 83h425v-83h-425v83z"></glyph>
      <glyph glyph-name="greaterequal" unicode="≥" d="M348 297q26 5 53 7t41 2v26q-14 0 -41 2t-53 7l-268 57v80l425 -98v-122l-425 -98v80zM505 83v-83h-425v83h425z"></glyph>
      <glyph glyph-name="smileface" unicode="☺" d="M61 355q0 76 27 141t74.5 112.5t113.5 74.5t144 27t144 -27t113.5 -74.5t74.5 -112.5t27 -141t-27 -141t-74.5 -112.5t-113.5 -74.5t-144 -27t-144 27t-113.5 74.5t-74.5 112.5t-27 141zM130 355q0 -64 21.5 -117.5t60 -92.5t92 -60.5t116.5 -21.5t116.5 21.5t92 60.5 t60 92.5t21.5 117.5t-21.5 117.5t-60 92.5t-92 60.5t-116.5 21.5t-116.5 -21.5t-92 -60.5t-60 -92.5t-21.5 -117.5zM261 317q29 -52 68.5 -76.5t90.5 -24.5t90.5 24.5t68.5 76.5l47 -30q-26 -63 -80 -98.5t-126 -35.5t-126 35.5t-80 98.5zM471 450q0 24 15.5 38.5t38.5 14.5 q22 0 37.5 -14.5t15.5 -38.5q0 -25 -15 -39.5t-38 -14.5t-38.5 14.5t-15.5 39.5zM263 450q0 24 15.5 38.5t38.5 14.5q22 0 37.5 -14.5t15.5 -38.5q0 -25 -15 -39.5t-38 -14.5t-38.5 14.5t-15.5 39.5z"></glyph>
      <glyph glyph-name="uniE000" unicode=""></glyph>
      <glyph glyph-name="uniE001" unicode="" d="M55 343h288v-91h-288v91z"></glyph>
      <glyph glyph-name="uniE002" unicode="" d="M158 710v-118l-64 -150h-47l33 114q2 6 6.5 15t12.5 17l-10 11q-8 -5 -15 -6t-11 -1h-23v118h118z"></glyph>
      <glyph glyph-name="uniE003" unicode="" d="M419 770q-1 -1 -2 -1l-1 1q0 3 1 3q2 0 2 -3zM553 770q0 3 2 3q1 0 1 -3q0 -1 -1 -1zM490 736q0 -3 -4 -3t-4 3q0 4 4 4t4 -4zM352 736q0 -2 -3 -2t-3 2q0 3 3 3t3 -3zM620 736q0 3 3 3t3 -3q0 -2 -3 -2t-3 2zM423 703q0 -7 -6 -7q-2 0 -4 2t-2 5q0 2 2 4t4 2q3 0 4.5 -2 t1.5 -4zM549 703q0 2 1.5 4t4.5 2q2 0 4 -2t2 -4q0 -3 -2 -5t-4 -2q-6 0 -6 7zM283 703q0 -4 -3 -4t-3 4q0 2 3 2t3 -2zM689 703q0 2 3 2t3 -2q0 -4 -3 -4t-3 4zM496 667q0 -8 -10 -8t-10 8q0 10 10 10t10 -10zM357 667q0 -7 -8 -7t-8 7q0 9 8 9t8 -9zM615 667q0 9 8 9t8 -9 q0 -7 -8 -7t-8 7zM214 667q0 -2 -3 -2q-2 0 -2 2q0 4 2 4q3 0 3 -4zM758 667q0 4 3 4q2 0 2 -4q0 -2 -2 -2q-3 0 -3 2zM430 634q0 -13 -13 -13q-12 0 -12 13t12 13q13 0 13 -13zM542 634q0 13 13 13q12 0 12 -13t-12 -13q-13 0 -13 13zM288 634q0 -8 -8 -8q-7 0 -7 8 q0 7 7 7q8 0 8 -7zM684 634q0 7 8 7q7 0 7 -7q0 -8 -7 -8q-8 0 -8 8zM145 634q0 -3 -3 -3v1q-1 0 -1 2l1 2q3 0 3 -2zM827 634q0 2 3 2q1 -1 1 -2v-2l-1 -1q-3 0 -3 3zM503 600q0 -17 -17 -17t-17 17q0 6 4.5 11.5t12.5 5.5t12.5 -5.5t4.5 -11.5zM363 600q0 -15 -14 -15 t-14 15q0 5 4 9.5t10 4.5t10 -4.5t4 -9.5zM609 600q0 5 4 9.5t10 4.5t10 -4.5t4 -9.5q0 -15 -14 -15t-14 15zM217 600q0 -8 -6 -8t-6 8q0 6 6 6t6 -6zM755 600q0 6 6 6t6 -6q0 -8 -6 -8t-6 8zM438 565q0 -8 -6 -14.5t-15 -6.5q-8 0 -14.5 6.5t-6.5 14.5q0 9 6.5 14.5 t14.5 5.5q9 0 15 -5.5t6 -14.5zM534 565q0 9 6 14.5t15 5.5q8 0 14.5 -5.5t6.5 -14.5q0 -8 -6.5 -14.5t-14.5 -6.5q-9 0 -15 6.5t-6 14.5zM294 565q0 -14 -14 -14q-13 0 -13 14t13 14q14 0 14 -14zM678 565q0 14 14 14q13 0 13 -14t-13 -14q-14 0 -14 14zM147 565 q0 -4 -5 -4q-3 0 -3 4t3 4q5 0 5 -4zM825 565q0 4 5 4q3 0 3 -4t-3 -4q-5 0 -5 4zM510 531q0 -11 -7 -18t-17 -7t-17 7t-7 18q0 10 7 17t17 7t17 -7t7 -17zM370 531q0 -9 -6.5 -15.5t-14.5 -6.5q-9 0 -15.5 6.5t-6.5 15.5t6.5 15t15.5 6q8 0 14.5 -6t6.5 -15zM602 531 q0 9 6.5 15t14.5 6q9 0 15.5 -6t6.5 -15t-6.5 -15.5t-15.5 -6.5q-8 0 -14.5 6.5t-6.5 15.5zM222 531q0 -11 -11 -11t-11 11t11 11t11 -11zM750 531q0 11 11 11t11 -11t-11 -11t-11 11zM77 531q0 -3 -2 -3q-3 0 -3 3q0 2 3 2q2 0 2 -2zM895 531q0 2 2 2q3 0 3 -2q0 -3 -3 -3 q-2 0 -2 3zM444 497q0 -11 -8 -19t-19 -8t-18 8t-7 19t7 18t18 7t19 -7t8 -18zM528 497q0 11 8 18t19 7t18 -7t7 -18t-7 -19t-18 -8t-19 8t-8 19zM300 497q0 -8 -6 -14.5t-14 -6.5t-13.5 6.5t-5.5 14.5q0 19 19 19q8 0 14 -5.5t6 -13.5zM672 497q0 8 6 13.5t14 5.5 q19 0 19 -19q0 -8 -5.5 -14.5t-13.5 -6.5t-14 6.5t-6 14.5zM150 497q0 -7 -8 -7q-6 0 -6 7t6 7q8 0 8 -7zM822 497q0 7 8 7q6 0 6 -7t-6 -7q-8 0 -8 7zM514 462q0 -12 -8 -20t-20 -8t-20 8t-8 20q0 11 8 20t20 9t20 -9t8 -20zM375 462q0 -11 -7.5 -18.5t-18.5 -7.5 t-18.5 7.5t-7.5 18.5t7.5 18.5t18.5 7.5t18.5 -7.5t7.5 -18.5zM597 462q0 11 7.5 18.5t18.5 7.5t18.5 -7.5t7.5 -18.5t-7.5 -18.5t-18.5 -7.5t-18.5 7.5t-7.5 18.5zM227 462q0 -15 -16 -15q-6 0 -10.5 4t-4.5 11q0 6 4.5 10.5t10.5 4.5q7 0 11.5 -4.5t4.5 -10.5zM745 462 q0 6 4.5 10.5t11.5 4.5q6 0 10.5 -4.5t4.5 -10.5q0 -7 -4.5 -11t-10.5 -4q-16 0 -16 15zM78 462q0 -4 -3 -4q-4 0 -4 4q0 3 4 3q3 0 3 -3zM894 462q0 3 3 3q4 0 4 -3q0 -4 -4 -4q-3 0 -3 4zM446 428q0 -12 -8.5 -20.5t-20.5 -8.5t-20.5 8.5t-8.5 20.5t8.5 20.5t20.5 8.5 t20.5 -8.5t8.5 -20.5zM526 428q0 12 8.5 20.5t20.5 8.5t20.5 -8.5t8.5 -20.5t-8.5 -20.5t-20.5 -8.5t-20.5 8.5t-8.5 20.5zM303 428q0 -10 -6 -17t-17 -7q-10 0 -17 7t-7 17t7 16.5t17 6.5q11 0 17 -6.5t6 -16.5zM669 428q0 10 6 16.5t17 6.5q10 0 17 -6.5t7 -16.5t-7 -17 t-17 -7q-11 0 -17 7t-6 17zM153 428q0 -10 -11 -10q-3 0 -6 2.5t-3 7.5q0 4 3 7t6 3q11 0 11 -10zM819 428q0 10 11 10q3 0 6 -3t3 -7q0 -5 -3 -7.5t-6 -2.5q-11 0 -11 10zM516 394q0 -13 -8.5 -21.5t-21.5 -8.5t-21.5 8.5t-8.5 21.5q0 12 8.5 20.5t21.5 8.5t21.5 -8.5 t8.5 -20.5zM377 394q0 -12 -8.5 -20.5t-19.5 -8.5t-20 8.5t-9 20.5t9 20t20 8t19.5 -8t8.5 -20zM595 394q0 12 8.5 20t19.5 8t20 -8t9 -20t-9 -20.5t-20 -8.5t-19.5 8.5t-8.5 20.5zM229 394q0 -19 -18 -19q-7 0 -12.5 5.5t-5.5 13.5t5.5 13t12.5 5q8 0 13 -5t5 -13zM743 394 q0 8 5 13t13 5q7 0 12.5 -5t5.5 -13t-5.5 -13.5t-12.5 -5.5q-18 0 -18 19zM78 394q0 -5 -3 -5q-5 0 -5 5q0 4 5 4q3 0 3 -4zM894 394q0 4 3 4q5 0 5 -4q0 -5 -5 -5q-3 0 -3 5zM447 359q0 -12 -8.5 -20.5t-21.5 -8.5q-12 0 -20.5 8.5t-8.5 20.5q0 13 8.5 21.5t20.5 8.5 q13 0 21.5 -8.5t8.5 -21.5zM525 359q0 13 8.5 21.5t21.5 8.5q12 0 20.5 -8.5t8.5 -21.5q0 -12 -8.5 -20.5t-20.5 -8.5q-13 0 -21.5 8.5t-8.5 20.5zM306 359q0 -10 -7.5 -18t-18.5 -8t-18 8t-7 18q0 11 7 18t18 7t18.5 -7t7.5 -18zM666 359q0 11 7.5 18t18.5 7t18 -7t7 -18 q0 -10 -7 -18t-18 -8t-18.5 8t-7.5 18zM154 359q0 -11 -12 -11q-11 0 -11 11q0 5 3 8.5t8 3.5q6 0 9 -3.5t3 -8.5zM818 359q0 5 3 8.5t9 3.5q5 0 8 -3.5t3 -8.5q0 -11 -11 -11q-12 0 -12 11zM516 325q0 -13 -8.5 -21.5t-21.5 -8.5t-21.5 8.5t-8.5 21.5t8.5 21.5t21.5 8.5 t21.5 -8.5t8.5 -21.5zM377 325q0 -12 -8 -20.5t-20 -8.5q-13 0 -21 8.5t-8 20.5t8 20.5t21 8.5q12 0 20 -8.5t8 -20.5zM595 325q0 12 8 20.5t20 8.5q13 0 21 -8.5t8 -20.5t-8 -20.5t-21 -8.5q-12 0 -20 8.5t-8 20.5zM231 325q0 -8 -6 -13.5t-14 -5.5q-19 0 -19 19t19 19 q8 0 14 -5.5t6 -13.5zM741 325q0 8 6 13.5t14 5.5q19 0 19 -19t-19 -19q-8 0 -14 5.5t-6 13.5zM79 325q0 -5 -4 -5q-5 0 -5 5t5 5q4 0 4 -5zM893 325q0 5 4 5q5 0 5 -5t-5 -5q-4 0 -4 5zM447 291q0 -13 -8.5 -21.5t-21.5 -8.5q-12 0 -20.5 8.5t-8.5 21.5q0 12 8.5 20.5 t20.5 8.5q13 0 21.5 -8.5t8.5 -20.5zM525 291q0 12 8.5 20.5t21.5 8.5q12 0 20.5 -8.5t8.5 -20.5q0 -13 -8.5 -21.5t-20.5 -8.5q-13 0 -21.5 8.5t-8.5 21.5zM306 291q0 -11 -7.5 -18t-18.5 -7t-18 7t-7 18q0 10 7 18t18 8t18.5 -8t7.5 -18zM666 291q0 10 7.5 18t18.5 8 t18 -8t7 -18q0 -11 -7 -18t-18 -7t-18.5 7t-7.5 18zM154 291q0 -12 -12 -12q-11 0 -11 12q0 11 11 11q12 0 12 -11zM818 291q0 11 12 11q11 0 11 -11q0 -12 -11 -12q-12 0 -12 12zM516 256q0 -12 -8.5 -20.5t-21.5 -8.5t-21.5 8.5t-8.5 20.5q0 13 8.5 21.5t21.5 8.5 t21.5 -8.5t8.5 -21.5zM377 256q0 -12 -8.5 -20t-19.5 -8t-20 8t-9 20t9 20.5t20 8.5t19.5 -8.5t8.5 -20.5zM595 256q0 12 8.5 20.5t19.5 8.5t20 -8.5t9 -20.5t-9 -20t-20 -8t-19.5 8t-8.5 20zM229 256q0 -8 -5 -13t-13 -5q-7 0 -12.5 5t-5.5 13t5.5 13t12.5 5q18 0 18 -18z M743 256q0 18 18 18q7 0 12.5 -5t5.5 -13t-5.5 -13t-12.5 -5q-8 0 -13 5t-5 13zM78 256q0 -5 -3 -5q-5 0 -5 5t5 5q3 0 3 -5zM894 256q0 5 3 5q5 0 5 -5t-5 -5q-3 0 -3 5zM446 222q0 -12 -8.5 -20.5t-20.5 -8.5t-20.5 8.5t-8.5 20.5t8.5 20.5t20.5 8.5t20.5 -8.5t8.5 -20.5z M526 222q0 12 8.5 20.5t20.5 8.5t20.5 -8.5t8.5 -20.5t-8.5 -20.5t-20.5 -8.5t-20.5 8.5t-8.5 20.5zM303 222q0 -10 -6 -17t-17 -7q-10 0 -17 7t-7 17t7 16.5t17 6.5q11 0 17 -6.5t6 -16.5zM669 222q0 10 6 16.5t17 6.5q10 0 17 -6.5t7 -16.5t-7 -17t-17 -7q-11 0 -17 7 t-6 17zM153 222q0 -10 -11 -10q-3 0 -6 2.5t-3 7.5q0 4 3 7t6 3q11 0 11 -10zM819 222q0 10 11 10q3 0 6 -3t3 -7q0 -5 -3 -7.5t-6 -2.5q-11 0 -11 10zM514 188q0 -11 -8 -20t-20 -9t-20 9t-8 20t8 19.5t20 8.5t20 -8.5t8 -19.5zM375 188q0 -11 -7.5 -18.5t-18.5 -7.5 t-18.5 7.5t-7.5 18.5t7.5 18.5t18.5 7.5t18.5 -7.5t7.5 -18.5zM597 188q0 11 7.5 18.5t18.5 7.5t18.5 -7.5t7.5 -18.5t-7.5 -18.5t-18.5 -7.5t-18.5 7.5t-7.5 18.5zM227 188q0 -15 -16 -15q-6 0 -10.5 4t-4.5 11t4.5 11t10.5 4q16 0 16 -15zM745 188q0 15 16 15q6 0 10.5 -4 t4.5 -11t-4.5 -11t-10.5 -4q-16 0 -16 15zM78 188q0 -3 -3 -3q-4 0 -4 3t4 3q3 0 3 -3zM894 188q0 3 3 3q4 0 4 -3t-4 -3q-3 0 -3 3zM444 153q0 -11 -8 -18.5t-19 -7.5t-18 7.5t-7 18.5t7 19t18 8t19 -8t8 -19zM528 153q0 11 8 19t19 8t18 -8t7 -19t-7 -18.5t-18 -7.5 t-19 7.5t-8 18.5zM300 153q0 -8 -6 -13.5t-14 -5.5q-19 0 -19 19q0 8 5.5 14t13.5 6t14 -6t6 -14zM672 153q0 8 6 14t14 6t13.5 -6t5.5 -14q0 -19 -19 -19q-8 0 -14 5.5t-6 13.5zM150 153q0 -7 -8 -7q-6 0 -6 7t6 7q8 0 8 -7zM822 153q0 7 8 7q6 0 6 -7t-6 -7q-8 0 -8 7z M510 119q0 -10 -7 -17t-17 -7t-17 7t-7 17q0 11 7 18t17 7t17 -7t7 -18zM370 119q0 -9 -6.5 -15t-14.5 -6q-9 0 -15.5 6t-6.5 15t6.5 15t15.5 6q8 0 14.5 -6t6.5 -15zM602 119q0 9 6.5 15t14.5 6q9 0 15.5 -6t6.5 -15t-6.5 -15t-15.5 -6q-8 0 -14.5 6t-6.5 15zM222 119 q0 -11 -11 -11t-11 11t11 11t11 -11zM750 119q0 11 11 11t11 -11t-11 -11t-11 11zM77 119q0 -2 -2 -2q-3 0 -3 2q0 3 3 3q2 0 2 -3zM895 119q0 3 2 3q3 0 3 -3q0 -2 -3 -2q-2 0 -2 2zM438 84q0 -8 -6 -13.5t-15 -5.5q-8 0 -14.5 5.5t-6.5 13.5q0 9 6.5 15t14.5 6q9 0 15 -6 t6 -15zM534 84q0 9 6 15t15 6q8 0 14.5 -6t6.5 -15q0 -8 -6.5 -13.5t-14.5 -5.5q-9 0 -15 5.5t-6 13.5zM294 84q0 -13 -14 -13q-13 0 -13 13q0 15 13 15q14 0 14 -15zM678 84q0 15 14 15q13 0 13 -15q0 -13 -13 -13q-14 0 -14 13zM147 84q0 -3 -5 -3q-3 0 -3 3q0 5 3 5 q5 0 5 -5zM825 84q0 5 5 5q3 0 3 -5q0 -3 -3 -3q-5 0 -5 3zM503 50q0 -7 -4.5 -12t-12.5 -5t-12.5 5t-4.5 12q0 17 17 17t17 -17zM363 50q0 -5 -4 -9.5t-10 -4.5t-10 4.5t-4 9.5q0 15 14 15t14 -15zM609 50q0 15 14 15t14 -15q0 -5 -4 -9.5t-10 -4.5t-10 4.5t-4 9.5zM217 50 q0 -6 -6 -6t-6 6t6 6t6 -6zM755 50q0 6 6 6t6 -6t-6 -6t-6 6zM430 16q0 -13 -13 -13q-12 0 -12 13t12 13q13 0 13 -13zM542 16q0 13 13 13q12 0 12 -13t-12 -13q-13 0 -13 13zM288 16q0 -7 -8 -7q-7 0 -7 7q0 8 7 8q8 0 8 -8zM684 16q0 8 8 8q7 0 7 -8q0 -7 -7 -7q-8 0 -8 7 zM145 16q0 -2 -3 -2q-1 1 -1 2q0 2 1 2v0q3 0 3 -2zM827 16q0 2 3 2h1v-2l-1 -2q-3 0 -3 2zM496 -19q0 -8 -10 -8t-10 8q0 10 10 10t10 -10zM357 -19q0 -7 -8 -7t-8 7q0 9 8 9t8 -9zM615 -19q0 9 8 9t8 -9q0 -7 -8 -7t-8 7zM214 -19q0 -2 -3 -2q-2 0 -2 2q0 4 2 4q3 0 3 -4z M758 -19q0 4 3 4q2 0 2 -4q0 -2 -2 -2q-3 0 -3 2zM423 -53q0 -6 -6 -6q-2 0 -4 2t-2 4q0 3 2 5t4 2q6 0 6 -7zM549 -53q0 7 6 7q2 0 4 -2t2 -5q0 -2 -2 -4t-4 -2q-6 0 -6 6zM283 -53q0 -2 -3 -2t-3 2q0 4 3 4t3 -4zM689 -53q0 4 3 4t3 -4q0 -2 -3 -2t-3 2zM490 -86 q0 -4 -4 -4t-4 4q0 3 4 3t4 -3zM352 -86q0 -3 -3 -3t-3 3q0 2 3 2t3 -2zM620 -86q0 2 3 2t3 -2q0 -3 -3 -3t-3 3zM419 -121l-1 -1q0 -1 -1 -1t-1 1v1q0 2 1 2q2 0 2 -2zM553 -121q0 2 2 2q1 0 1 -2v-1q0 -1 -1 -1t-1 1q-1 0 -1 1z"></glyph>
      <glyph glyph-name="uniE004" unicode="" d="M292 286q0 15 11 26t26 11q14 0 24.5 -11t10.5 -26t-10.5 -25.5t-24.5 -10.5q-15 0 -26 10.5t-11 25.5zM329 409q14 0 23.5 -10.5t9.5 -25.5t-9.5 -25t-23.5 -10q-15 0 -25 10t-10 25t10 25.5t25 10.5zM329 233q14 0 23.5 -9.5t9.5 -23.5q0 -15 -9.5 -25.5t-23.5 -10.5 q-15 0 -25 10.5t-10 25.5q0 14 10 23.5t25 9.5zM329 490q11 0 20 -9t9 -20q0 -12 -9 -21.5t-20 -9.5q-13 0 -22 9.5t-9 21.5q0 11 9 20t22 9zM212 330q0 12 8.5 20.5t20.5 8.5q13 0 21.5 -8.5t8.5 -20.5q0 -13 -8.5 -21.5t-21.5 -8.5q-12 0 -20.5 8.5t-8.5 21.5zM241 272 q13 0 21.5 -9t8.5 -20q0 -13 -8.5 -21t-21.5 -8q-12 0 -20.5 8t-8.5 21q0 11 8.5 20t20.5 9zM299 112q0 11 8.5 20t21.5 9q11 0 20 -9t9 -20q0 -13 -9 -21t-20 -8q-13 0 -21.5 8t-8.5 21zM241 442q11 0 18 -7.5t7 -18.5q0 -10 -7 -17t-18 -7q-10 0 -17.5 7t-7.5 17 q0 11 7.5 18.5t17.5 7.5zM241 180q11 0 18 -7.5t7 -17.5q0 -11 -7 -17.5t-18 -6.5q-10 0 -17.5 6.5t-7.5 17.5q0 10 7.5 17.5t17.5 7.5zM329 567q8 0 13 -6t5 -14q0 -18 -18 -18q-8 0 -14 5t-6 13t6 14t14 6zM309 25q0 8 6 12.5t14 4.5q18 0 18 -17q0 -19 -18 -19 q-8 0 -14 5.5t-6 13.5zM153 304q9 0 14 -5t5 -13q0 -7 -5 -13t-14 -6q-6 0 -11.5 6t-5.5 13q0 8 5.5 13t11.5 5zM241 521q8 0 12.5 -5t4.5 -12q0 -16 -17 -16q-16 0 -16 16q0 7 4.5 12t11.5 5zM225 69q0 15 16 15q17 0 17 -15q0 -17 -17 -17q-16 0 -16 17zM139 373 q0 16 14 16q17 0 17 -16q0 -7 -4.5 -12t-12.5 -5q-6 0 -10 5t-4 12zM153 215q8 0 12.5 -5t4.5 -10q0 -17 -17 -17q-5 0 -9.5 4.5t-4.5 12.5q0 5 4.5 10t9.5 5zM153 472q13 0 13 -11q0 -5 -4 -8.5t-9 -3.5q-4 0 -7 3.5t-3 8.5q0 11 10 11zM153 123q13 0 13 -11t-13 -11 q-10 0 -10 11t10 11zM319 -64q0 10 10 10q8 0 8 -10q0 -7 -8 -7q-10 0 -10 7zM241 599q8 0 8 -7q0 -10 -8 -10t-8 10q0 7 8 7zM329 642q8 0 8 -7q0 -8 -8 -8q-10 0 -10 8q0 7 10 7zM233 -19q0 8 8 8t8 -8q0 -7 -8 -7t-8 7zM67 336q6 0 6 -6q0 -7 -6 -7q-7 0 -7 7q0 6 7 6z M67 249q6 0 6 -6t-6 -6q-7 0 -7 6t7 6zM153 554q7 0 7 -7q0 -5 -7 -5q-4 0 -4 5q0 7 4 7zM149 25q0 6 4 6q7 0 7 -6t-7 -6q-4 0 -4 6zM67 421q5 0 5 -5q0 -4 -5 -4t-5 4q0 5 5 5zM63 155q0 5 4 5q5 0 5 -5q0 -4 -5 -4q-4 0 -4 4zM67 508q2 0 2 -4q0 -3 -2 -3q-3 0 -3 3 q0 4 3 4zM67 71q2 0 2 -1v-1q0 -4 -2 -4q-3 0 -3 4l1 1zM241 681q4 0 4 -3l-4 -1q-2 0 -2 1h-1q0 3 3 3zM325 723l1 1h3l2 -1q0 -2 -1 -2q0 -1 -1 -1q-4 0 -4 3zM325 -150l1 1q1 0 1.5 0.5t1.5 0.5l2 -2q0 -1 -1 -1h-1q-4 0 -4 1zM239 -107q0 3 2 3q1 0 1 -3q0 -1 -1 -1 q-2 0 -2 1zM152 -64q0 2 1 2v1q2 0 2 -3v-1h-2z"></glyph>
      <glyph glyph-name="uniE005" unicode="" d="M217 282q16 0 27 -11.5t11 -27.5q0 -17 -11 -28t-27 -11q-17 0 -28.5 11t-11.5 28q0 16 11.5 27.5t28.5 11.5zM177 330q0 16 11.5 27.5t28.5 11.5q16 0 27 -11.5t11 -27.5t-11 -27.5t-27 -11.5q-17 0 -28.5 11.5t-11.5 27.5zM4 243q0 16 11.5 27.5t27.5 11.5 q15 0 27 -11.5t12 -27.5q0 -17 -12 -28t-27 -11q-16 0 -27.5 11t-11.5 28zM4 330q0 16 11.5 27.5t27.5 11.5q15 0 27 -11.5t12 -27.5t-12 -27.5t-27 -11.5q-16 0 -27.5 11.5t-11.5 27.5zM304 412q15 0 26.5 -11.5t11.5 -26.5q0 -17 -11.5 -28.5t-26.5 -11.5q-17 0 -28 11.5 t-11 28.5q0 15 11 26.5t28 11.5zM265 286q0 16 11 27t28 11q16 0 27.5 -11t11.5 -27q0 -17 -11.5 -27.5t-27.5 -10.5q-17 0 -28 10.5t-11 27.5zM265 199q0 16 11 27t28 11q15 0 26.5 -11t11.5 -27q0 -15 -11.5 -26.5t-26.5 -11.5q-17 0 -28 11.5t-11 26.5zM92 374 q0 15 11 26.5t26 11.5q16 0 27 -11.5t11 -26.5q0 -17 -11 -28.5t-27 -11.5q-15 0 -26 11.5t-11 28.5zM91 286q0 16 11.5 27t26.5 11q16 0 27 -11t11 -27q0 -17 -11 -27.5t-27 -10.5q-15 0 -26.5 10.5t-11.5 27.5zM92 199q0 16 11 27t26 11q16 0 27 -11t11 -27 q0 -15 -11 -26.5t-27 -11.5q-15 0 -26 11.5t-11 26.5zM5 156q0 14 11 25.5t27 11.5q15 0 26 -11.5t11 -25.5q0 -16 -11 -27t-26 -11q-16 0 -27 11t-11 27zM43 453q15 0 26 -10t11 -27q0 -14 -11 -25.5t-26 -11.5q-16 0 -27 11.5t-11 25.5q0 17 11 27t27 10zM180 156 q0 14 10.5 25.5t26.5 11.5q14 0 25.5 -11.5t11.5 -25.5q0 -16 -11.5 -27t-25.5 -11q-16 0 -26.5 11t-10.5 27zM180 416q0 17 10.5 27t26.5 10q14 0 25.5 -10t11.5 -27q0 -14 -11.5 -25.5t-25.5 -11.5q-16 0 -26.5 11.5t-10.5 25.5zM269 461q0 14 10 24t25 10q14 0 24 -10 t10 -24q0 -16 -10 -25.5t-24 -9.5q-15 0 -25 9.5t-10 25.5zM95 461q0 14 10 24t24 10q15 0 25 -10t10 -24q0 -16 -10 -25.5t-25 -9.5q-14 0 -24 9.5t-10 25.5zM304 146q14 0 24 -10t10 -24q0 -15 -10 -25t-24 -10q-15 0 -25 10t-10 25q0 14 10 24t25 10zM95 112q0 14 10 24 t24 10q15 0 25 -10t10 -24q0 -15 -10 -25t-25 -10q-14 0 -24 10t-10 25zM43 534q13 0 21.5 -9t8.5 -21q0 -13 -8.5 -22t-21.5 -9t-22 9t-9 22q0 12 9 21t22 9zM217 534q12 0 20.5 -9t8.5 -21q0 -13 -8.5 -22t-20.5 -9q-14 0 -22.5 9t-8.5 22q0 12 8.5 21t22.5 9zM43 98 q13 0 21.5 -8t8.5 -21q0 -14 -8.5 -22t-21.5 -8t-22 8t-9 22q0 13 9 21t22 8zM186 69q0 13 8.5 21t22.5 8q12 0 20.5 -8t8.5 -21q0 -14 -8.5 -22t-20.5 -8q-14 0 -22.5 8t-8.5 22zM278 547q0 11 8 19t18 8q11 0 17.5 -8t6.5 -19t-6.5 -18t-17.5 -7q-10 0 -18 7t-8 18z M278 25q0 11 8 18.5t18 7.5q11 0 17.5 -7.5t6.5 -18.5t-6.5 -18.5t-17.5 -7.5q-10 0 -18 7.5t-8 18.5zM105 547q0 11 6.5 19t17.5 8t18 -8t7 -19t-7 -18t-18 -7t-17.5 7t-6.5 18zM129 51q11 0 18 -7.5t7 -18.5t-7 -18.5t-18 -7.5t-17.5 7.5t-6.5 18.5t6.5 18.5t17.5 7.5z M23 592q0 8 6 13t14 5t13 -5t5 -13q0 -20 -18 -20q-8 0 -14 5.5t-6 14.5zM217 610q8 0 13.5 -5t5.5 -13q0 -20 -19 -20t-19 20q0 8 5.5 13t13.5 5zM217 -1q18 0 18 -18q0 -8 -5 -13t-13 -5t-13.5 5t-5.5 13q0 18 19 18zM24 -19q0 18 19 18q6 0 12 -4.5t6 -13.5q0 -8 -6 -13 t-12 -5q-8 0 -13.5 5t-5.5 13zM129 647q5 0 9.5 -3t4.5 -9q0 -7 -4.5 -10t-9.5 -3q-4 0 -8.5 3t-4.5 10q0 6 4.5 9t8.5 3zM292 -63q0 5 3.5 9.5t8.5 4.5t8.5 -4.5t3.5 -9.5q0 -12 -12 -12t-12 12zM292 635q0 12 12 12t12 -12q0 -13 -12 -13t-12 13zM129 -49q5 0 8 -4.5 t3 -9.5q0 -12 -11 -12q-4 0 -8.5 3.5t-4.5 8.5t4.5 9.5t8.5 4.5zM209 678q0 8 8 8q6 0 6 -8q0 -2 -1.5 -4.5t-4.5 -2.5q-4 0 -6 2.5t-2 4.5zM43 686q6 0 6 -8q0 -2 -2 -4.5t-4 -2.5q-4 0 -6 2.5t-2 4.5q0 8 8 8zM217 -98q3 0 4.5 -3t1.5 -6q0 -2 -1.5 -4t-4.5 -2t-5.5 2 t-2.5 4q0 3 2.5 6t5.5 3zM43 -98q2 0 4 -3t2 -6q0 -2 -2 -4t-4 -2q-4 0 -6 2t-2 4q0 3 2 6t6 3zM126 723q0 3 3 3q5 0 5 -3q0 -5 -5 -5q-3 0 -3 5zM126 -150q0 4 3 4q5 0 5 -4q0 -3 -5 -3q-3 0 -3 3zM301 723q0 3 3 3t3 -3q0 -5 -3 -5t-3 5zM304 -146q3 0 3 -4q0 -3 -3 -3 t-3 3q0 4 3 4z"></glyph>
      <glyph glyph-name="uniE006" unicode="" d="M41 281q15 0 26 -11t11 -27q0 -17 -11 -28t-26 -11q-17 0 -28 11t-11 28q0 16 11 27t28 11zM41 369q15 0 26 -12t11 -27q0 -16 -11 -27t-26 -11q-17 0 -28 11t-11 27q0 15 11 27t28 12zM41 453q15 0 25.5 -10t10.5 -27q0 -15 -10.5 -26t-25.5 -11q-17 0 -27 11t-10 26 q0 17 10 27t27 10zM4 155q0 15 10 25.5t27 10.5q15 0 25.5 -10.5t10.5 -25.5t-10.5 -26t-25.5 -11q-17 0 -27 11t-10 26zM88 286q0 15 10.5 26t25.5 11q14 0 25 -11t11 -26t-11 -25.5t-25 -10.5q-15 0 -25.5 10.5t-10.5 25.5zM124 409q14 0 24 -10.5t10 -25.5t-10 -25 t-24 -10t-24 10t-10 25t10 25.5t24 10.5zM90 200q0 14 10 23.5t24 9.5t24 -9.5t10 -23.5q0 -15 -10 -25.5t-24 -10.5t-24 10.5t-10 25.5zM41 535q12 0 21 -9t9 -22q0 -12 -9 -21.5t-21 -9.5q-13 0 -22.5 9.5t-9.5 21.5q0 13 9.5 22t22.5 9zM41 98q12 0 21 -8.5t9 -20.5 q0 -14 -9 -22.5t-21 -8.5q-13 0 -22.5 8.5t-9.5 22.5q0 12 9.5 20.5t22.5 8.5zM124 490q12 0 21 -9t9 -20q0 -12 -9 -21.5t-21 -9.5t-21 9.5t-9 21.5q0 11 9 20t21 9zM181 330q0 12 8.5 20.5t21.5 8.5q12 0 20.5 -8.5t8.5 -20.5q0 -13 -8.5 -21.5t-20.5 -8.5 q-13 0 -21.5 8.5t-8.5 21.5zM181 243q0 11 8.5 20t21.5 9q12 0 20.5 -9t8.5 -20q0 -13 -8.5 -21t-20.5 -8q-13 0 -21.5 8t-8.5 21zM94 112q0 11 9 20t21 9t20.5 -9t8.5 -20q0 -13 -8.5 -21t-20.5 -8t-21 8t-9 21zM211 442q10 0 17.5 -7.5t7.5 -18.5q0 -10 -7.5 -17t-17.5 -7 q-11 0 -17.5 7t-6.5 17q0 11 6.5 18.5t17.5 7.5zM211 180q10 0 17.5 -7.5t7.5 -17.5q0 -11 -7.5 -17.5t-17.5 -6.5q-11 0 -17.5 6.5t-6.5 17.5q0 10 6.5 17.5t17.5 7.5zM124 567q8 0 13.5 -6t5.5 -14t-5.5 -13t-13.5 -5q-19 0 -19 18q0 8 5 14t14 6zM41 610q8 0 12.5 -5 t4.5 -13t-4.5 -14t-12.5 -6q-9 0 -14.5 6t-5.5 14t5.5 13t14.5 5zM124 42q8 0 13.5 -4.5t5.5 -12.5t-5.5 -13.5t-13.5 -5.5q-19 0 -19 19q0 17 19 17zM299 304q6 0 11.5 -5t5.5 -13q0 -7 -5.5 -13t-11.5 -6q-9 0 -14 6t-5 13q0 8 5 13t14 5zM22 -19q0 18 19 18q6 0 11.5 -5 t5.5 -13t-5.5 -13t-11.5 -5q-9 0 -14 5t-5 13zM194 504q0 7 4.5 12t12.5 5q7 0 11.5 -5t4.5 -12q0 -16 -16 -16q-17 0 -17 16zM211 84q16 0 16 -15q0 -17 -16 -17q-17 0 -17 17q0 15 17 15zM299 389q6 0 10.5 -4t4.5 -12q0 -7 -4.5 -12t-10.5 -5q-8 0 -12.5 5t-4.5 12 q0 16 17 16zM282 200q0 5 4.5 10t12.5 5q5 0 10 -5t5 -10q0 -8 -5 -12.5t-10 -4.5q-17 0 -17 17zM286 461q0 5 4 8t9 3q10 0 10 -11q0 -5 -3 -8.5t-7 -3.5q-5 0 -9 3.5t-4 8.5zM299 123q10 0 10 -11t-10 -11q-5 0 -9 3t-4 8t4 8t9 3zM124 -54q3 0 6 -2.5t3 -7.5 q0 -2 -3 -4.5t-6 -2.5q-9 0 -9 7q0 10 9 10zM124 642q3 0 6 -1.5t3 -5.5t-3 -6t-6 -2q-9 0 -9 8q0 7 9 7zM211 599q7 0 7 -7q0 -10 -7 -10q-8 0 -8 10q0 7 8 7zM203 -19q0 8 8 8q7 0 7 -8q0 -7 -7 -7q-8 0 -8 7zM41 -98q6 0 6 -9q0 -5 -6 -5q-9 0 -9 5q0 9 9 9zM41 685 q6 0 6 -7t-6 -7q-9 0 -9 7t9 7zM385 336q7 0 7 -6q0 -7 -7 -7q-6 0 -6 7q0 6 6 6zM379 243q0 6 6 6q7 0 7 -6t-7 -6q-6 0 -6 6zM299 31q4 0 4 -6t-4 -6q-6 0 -6 6t6 6zM293 547q0 7 6 7q4 0 4 -7q0 -5 -4 -5q-6 0 -6 5zM385 421q5 0 5 -5q0 -4 -5 -4t-5 4q0 5 5 5zM385 160 q4 0 4 -5q0 -4 -4 -4q-5 0 -5 4q0 5 5 5zM385 508q3 0 3 -4q0 -3 -3 -3q-2 0 -2 3q0 4 2 4zM385 71q1 0 2 -1l1 -1q0 -4 -3 -4q-2 0 -2 4v1q1 1 2 1zM211 681q3 0 3 -3h-1q0 -1 -2 -1l-4 1q0 3 4 3zM124 724h2l1 -1q0 -3 -3 -3q-1 0 -1 1q-2 0 -2 2zM124 -148q1 0 1 -0.5 t1 -0.5l1 -1q0 -1 -3 -1h-1q-2 0 -2 1zM210 -107q0 3 1 3q2 0 2 -3q0 -1 -2 -1q-1 0 -1 1zM299 -61l1 -1v-2l-1 -1h-2v1q0 3 2 3z"></glyph>
      <glyph glyph-name="fi.1" unicode="ﬁ" d="M105 484v44q0 88 53.5 141t157.5 53q72 0 115 -24t62 -53l-76 -67q-17 20 -42 35.5t-69 15.5q-45 0 -70.5 -20.5t-25.5 -51.5v-21q0 -18 -8 -29.5t-19 -23.5l17 -19q12 8 25.5 14t33.5 6h248v-484h-105v394h-192v-394h-105v394h-99v90h99z"></glyph>
      <glyph glyph-name="f_f" d="M6 484h99v34q0 43 12.5 80.5t37 65t62 43t88.5 15.5q64 0 104 -23l-57 -89q-11 8 -25.5 13.5t-31.5 5.5q-47 0 -66 -21.5t-19 -50.5v-21q0 -18 -8 -29.5t-19 -23.5l17 -19q12 8 25.5 14t33.5 6h143v34q0 43 12.5 80.5t37 65t62 43t88.5 15.5q57 0 96 -18.5t63 -58.5 l-83 -67q-8 18 -32 34.5t-54 16.5q-47 0 -66 -21.5t-19 -50.5v-21q0 -18 -8 -29.5t-19 -23.5l17 -19q12 8 25.5 14t33.5 6h162v-90h-211v-394h-105v394h-192v-394h-105v394h-99v90z"></glyph>
      <glyph glyph-name="f_f_i" d="M105 484v34q0 43 12.5 80.5t37 65t62 43t88.5 15.5q64 0 104 -23l-57 -89q-11 8 -25.5 13.5t-31.5 5.5q-47 0 -66 -21.5t-19 -50.5v-21q0 -18 -8 -29.5t-19 -23.5l17 -19q12 8 25.5 14t33.5 6h143v44q0 88 53.5 141t157.5 53q72 0 115 -24t62 -53l-76 -67 q-17 20 -42 35.5t-69 15.5q-45 0 -70.5 -20.5t-25.5 -51.5v-21q0 -17 -7.5 -28.5t-18.5 -23.5h323v-484h-105v394h-192v-394h-105v394h-192v-394h-105v394h-99v90h99z"></glyph>
      <glyph glyph-name="f_f_j" d="M6 394v90h99v34q0 43 12.5 80.5t37 65t62 43t88.5 15.5q64 0 104 -23l-57 -89q-11 8 -25.5 13.5t-31.5 5.5q-47 0 -66 -21.5t-19 -50.5v-21q0 -18 -8 -29.5t-19 -23.5l17 -19q12 8 25.5 14t33.5 6h143v44q0 88 53.5 141t157.5 53q72 0 115 -24t62 -53l-76 -67 q-17 20 -42 35.5t-69 15.5q-45 0 -70.5 -20.5t-25.5 -51.5v-21q0 -17 -7.5 -28.5t-18.5 -23.5h323v-501q0 -85 -42.5 -134t-120.5 -49v102q29 0 43.5 18.5t14.5 65.5v408h-192v-394h-105v394h-192v-394h-105v394h-99z"></glyph>
      <glyph glyph-name="fi" d="M105 484v44q0 88 53.5 141t157.5 53q72 0 115 -24t62 -53l-76 -67q-17 20 -42 35.5t-69 15.5q-45 0 -70.5 -20.5t-25.5 -51.5v-21q0 -18 -8 -29.5t-19 -23.5l17 -19q12 8 25.5 14t33.5 6h248v-484h-105v394h-192v-394h-105v394h-99v90h99z"></glyph>
      <glyph glyph-name="f_j" d="M6 484h99v44q0 88 53.5 141t157.5 53q72 0 115 -24t62 -53l-76 -67q-17 20 -42 35.5t-69 15.5q-45 0 -70.5 -20.5t-25.5 -51.5v-21q0 -18 -8 -29.5t-19 -23.5l17 -19q12 8 25.5 14t33.5 6h248v-501q0 -85 -42.5 -134t-120.5 -49v102q29 0 43.5 18.5t14.5 65.5v408h-192 v-394h-105v394h-99v90z"></glyph>
      <glyph glyph-name="A_I_D_S" d="M14 0l261 710h138l261 -710h-117l-46 125q-4 10 -4 21t5 22l-14 16q-15 -5 -32 -6t-52 -1h-140q-35 0 -52 1t-32 6l-14 -16q5 -11 5 -22t-4 -21l-46 -125h-117zM236 262q15 5 29.5 6.5t33.5 1.5h90q19 0 33.5 -1.5t29.5 -6.5l13 17q-5 7 -12.5 19t-12.5 26l-40 108 q-13 35 -25.5 81.5t-18.5 109.5h-24q-6 -63 -18.5 -109.5t-25.5 -81.5l-40 -108q-5 -14 -12.5 -26t-12.5 -19zM762 0v710h110v-710h-110zM1018 0v710h262q85 0 151 -27t111.5 -75t69 -114t23.5 -144q0 -74 -24 -138t-70 -111t-112 -74t-149 -27h-262zM1128 472v-234 q0 -38 -7 -73.5t-23 -52.5l11 -19q7 3 18 5t23.5 3t23.5 1.5t18 0.5h88q58 0 103 19.5t76 53.5t47 78.5t16 95.5q0 56 -15.5 103t-46.5 81.5t-76 53.5t-104 19h-88q-7 0 -18 0.5t-23.5 1.5t-23.5 3t-18 5l-11 -19q16 -17 23 -52.5t7 -73.5zM1678 104l65 92 q14 -16 34.5 -34.5t48.5 -34.5t63.5 -26t80.5 -10q40 0 69.5 8.5t49 22.5t29.5 32.5t10 39.5q0 25 -12 42.5t-32.5 30t-48 20.5t-58.5 15q-45 10 -92.5 22t-86.5 33.5t-64 57t-25 92.5q0 50 20 90t56 67.5t85 42.5t107 15q83 0 150 -29t105 -81l-76 -81q-9 14 -23 29 t-35.5 28.5t-51 22t-70.5 8.5q-75 0 -116.5 -29t-41.5 -74q0 -28 15.5 -46.5t42 -30.5t60 -20.5t69.5 -16.5q42 -10 83.5 -22.5t74.5 -34t53.5 -55t20.5 -85.5q0 -50 -20.5 -90t-56.5 -68.5t-86.5 -43.5t-110.5 -15q-48 0 -92 9.5t-80.5 25.5t-65.5 37t-47 44z"></glyph>
      <glyph glyph-name="bl1_bl2_bl2_bl2_bl2_bl2_bl2_bl3" d="M292 286q0 15 11 26t26 11q14 0 24.5 -11t10.5 -26t-10.5 -25.5t-24.5 -10.5q-15 0 -26 10.5t-11 25.5zM329 409q14 0 23.5 -10.5t9.5 -25.5t-9.5 -25t-23.5 -10q-15 0 -25 10t-10 25t10 25.5t25 10.5zM329 233q14 0 23.5 -9.5t9.5 -23.5q0 -15 -9.5 -25.5t-23.5 -10.5 q-15 0 -25 10.5t-10 25.5q0 14 10 23.5t25 9.5zM329 490q11 0 20 -9t9 -20q0 -12 -9 -21.5t-20 -9.5q-13 0 -22 9.5t-9 21.5q0 11 9 20t22 9zM212 330q0 12 8.5 20.5t20.5 8.5q13 0 21.5 -8.5t8.5 -20.5q0 -13 -8.5 -21.5t-21.5 -8.5q-12 0 -20.5 8.5t-8.5 21.5zM241 272 q13 0 21.5 -9t8.5 -20q0 -13 -8.5 -21t-21.5 -8q-12 0 -20.5 8t-8.5 21q0 11 8.5 20t20.5 9zM299 112q0 11 8.5 20t21.5 9q11 0 20 -9t9 -20q0 -13 -9 -21t-20 -8q-13 0 -21.5 8t-8.5 21zM241 442q11 0 18 -7.5t7 -18.5q0 -10 -7 -17t-18 -7q-10 0 -17.5 7t-7.5 17 q0 11 7.5 18.5t17.5 7.5zM241 180q11 0 18 -7.5t7 -17.5q0 -11 -7 -17.5t-18 -6.5q-10 0 -17.5 6.5t-7.5 17.5q0 10 7.5 17.5t17.5 7.5zM329 567q8 0 13 -6t5 -14q0 -18 -18 -18q-8 0 -14 5t-6 13t6 14t14 6zM309 25q0 8 6 12.5t14 4.5q18 0 18 -17q0 -19 -18 -19 q-8 0 -14 5.5t-6 13.5zM153 304q9 0 14 -5t5 -13q0 -7 -5 -13t-14 -6q-6 0 -11.5 6t-5.5 13q0 8 5.5 13t11.5 5zM241 521q8 0 12.5 -5t4.5 -12q0 -16 -17 -16q-16 0 -16 16q0 7 4.5 12t11.5 5zM225 69q0 15 16 15q17 0 17 -15q0 -17 -17 -17q-16 0 -16 17zM139 373 q0 16 14 16q17 0 17 -16q0 -7 -4.5 -12t-12.5 -5q-6 0 -10 5t-4 12zM153 215q8 0 12.5 -5t4.5 -10q0 -17 -17 -17q-5 0 -9.5 4.5t-4.5 12.5q0 5 4.5 10t9.5 5zM153 472q13 0 13 -11q0 -5 -4 -8.5t-9 -3.5q-4 0 -7 3.5t-3 8.5q0 11 10 11zM153 123q13 0 13 -11t-13 -11 q-10 0 -10 11t10 11zM319 -64q0 10 10 10q8 0 8 -10q0 -7 -8 -7q-10 0 -10 7zM241 599q8 0 8 -7q0 -10 -8 -10t-8 10q0 7 8 7zM329 642q8 0 8 -7q0 -8 -8 -8q-10 0 -10 8q0 7 10 7zM233 -19q0 8 8 8t8 -8q0 -7 -8 -7t-8 7zM67 336q6 0 6 -6q0 -7 -6 -7q-7 0 -7 7q0 6 7 6z M67 249q6 0 6 -6t-6 -6q-7 0 -7 6t7 6zM153 554q7 0 7 -7q0 -5 -7 -5q-4 0 -4 5q0 7 4 7zM149 25q0 6 4 6q7 0 7 -6t-7 -6q-4 0 -4 6zM67 421q5 0 5 -5q0 -4 -5 -4t-5 4q0 5 5 5zM63 155q0 5 4 5q5 0 5 -5q0 -4 -5 -4q-4 0 -4 4zM67 508q2 0 2 -4q0 -3 -2 -3q-3 0 -3 3 q0 4 3 4zM67 71q2 0 2 -1v-1q0 -4 -2 -4q-3 0 -3 4l1 1zM241 681q4 0 4 -3l-4 -1q-2 0 -2 1h-1q0 3 3 3zM325 723l1 1h3l2 -1q0 -2 -1 -2q0 -1 -1 -1q-4 0 -4 3zM325 -150l1 1q1 0 1.5 0.5t1.5 0.5l2 -2q0 -1 -1 -1h-1q-4 0 -4 1zM239 -107q0 3 2 3q1 0 1 -3q0 -1 -1 -1 q-2 0 -2 1zM152 -64q0 2 1 2v1q2 0 2 -3v-1h-2zM587 282q16 0 27 -11.5t11 -27.5q0 -17 -11 -28t-27 -11q-17 0 -28.5 11t-11.5 28q0 16 11.5 27.5t28.5 11.5zM547 330q0 16 11.5 27.5t28.5 11.5q16 0 27 -11.5t11 -27.5t-11 -27.5t-27 -11.5q-17 0 -28.5 11.5t-11.5 27.5z M374 243q0 16 11.5 27.5t27.5 11.5q15 0 27 -11.5t12 -27.5q0 -17 -12 -28t-27 -11q-16 0 -27.5 11t-11.5 28zM374 330q0 16 11.5 27.5t27.5 11.5q15 0 27 -11.5t12 -27.5t-12 -27.5t-27 -11.5q-16 0 -27.5 11.5t-11.5 27.5zM674 412q15 0 26.5 -11.5t11.5 -26.5 q0 -17 -11.5 -28.5t-26.5 -11.5q-17 0 -28 11.5t-11 28.5q0 15 11 26.5t28 11.5zM635 286q0 16 11 27t28 11q16 0 27.5 -11t11.5 -27q0 -17 -11.5 -27.5t-27.5 -10.5q-17 0 -28 10.5t-11 27.5zM635 199q0 16 11 27t28 11q15 0 26.5 -11t11.5 -27q0 -15 -11.5 -26.5 t-26.5 -11.5q-17 0 -28 11.5t-11 26.5zM462 374q0 15 11 26.5t26 11.5q16 0 27 -11.5t11 -26.5q0 -17 -11 -28.5t-27 -11.5q-15 0 -26 11.5t-11 28.5zM461 286q0 16 11.5 27t26.5 11q16 0 27 -11t11 -27q0 -17 -11 -27.5t-27 -10.5q-15 0 -26.5 10.5t-11.5 27.5zM462 199 q0 16 11 27t26 11q16 0 27 -11t11 -27q0 -15 -11 -26.5t-27 -11.5q-15 0 -26 11.5t-11 26.5zM375 156q0 14 11 25.5t27 11.5q15 0 26 -11.5t11 -25.5q0 -16 -11 -27t-26 -11q-16 0 -27 11t-11 27zM413 453q15 0 26 -10t11 -27q0 -14 -11 -25.5t-26 -11.5q-16 0 -27 11.5 t-11 25.5q0 17 11 27t27 10zM550 156q0 14 10.5 25.5t26.5 11.5q14 0 25.5 -11.5t11.5 -25.5q0 -16 -11.5 -27t-25.5 -11q-16 0 -26.5 11t-10.5 27zM550 416q0 17 10.5 27t26.5 10q14 0 25.5 -10t11.5 -27q0 -14 -11.5 -25.5t-25.5 -11.5q-16 0 -26.5 11.5t-10.5 25.5z M639 461q0 14 10 24t25 10q14 0 24 -10t10 -24q0 -16 -10 -25.5t-24 -9.5q-15 0 -25 9.5t-10 25.5zM465 461q0 14 10 24t24 10q15 0 25 -10t10 -24q0 -16 -10 -25.5t-25 -9.5q-14 0 -24 9.5t-10 25.5zM674 146q14 0 24 -10t10 -24q0 -15 -10 -25t-24 -10q-15 0 -25 10 t-10 25q0 14 10 24t25 10zM465 112q0 14 10 24t24 10q15 0 25 -10t10 -24q0 -15 -10 -25t-25 -10q-14 0 -24 10t-10 25zM413 534q13 0 21.5 -9t8.5 -21q0 -13 -8.5 -22t-21.5 -9t-22 9t-9 22q0 12 9 21t22 9zM587 534q12 0 20.5 -9t8.5 -21q0 -13 -8.5 -22t-20.5 -9 q-14 0 -22.5 9t-8.5 22q0 12 8.5 21t22.5 9zM413 98q13 0 21.5 -8t8.5 -21q0 -14 -8.5 -22t-21.5 -8t-22 8t-9 22q0 13 9 21t22 8zM556 69q0 13 8.5 21t22.5 8q12 0 20.5 -8t8.5 -21q0 -14 -8.5 -22t-20.5 -8q-14 0 -22.5 8t-8.5 22zM648 547q0 11 8 19t18 8q11 0 17.5 -8 t6.5 -19t-6.5 -18t-17.5 -7q-10 0 -18 7t-8 18zM648 25q0 11 8 18.5t18 7.5q11 0 17.5 -7.5t6.5 -18.5t-6.5 -18.5t-17.5 -7.5q-10 0 -18 7.5t-8 18.5zM475 547q0 11 6.5 19t17.5 8t18 -8t7 -19t-7 -18t-18 -7t-17.5 7t-6.5 18zM499 51q11 0 18 -7.5t7 -18.5t-7 -18.5 t-18 -7.5t-17.5 7.5t-6.5 18.5t6.5 18.5t17.5 7.5zM393 592q0 8 6 13t14 5t13 -5t5 -13q0 -20 -18 -20q-8 0 -14 5.5t-6 14.5zM587 610q8 0 13.5 -5t5.5 -13q0 -20 -19 -20t-19 20q0 8 5.5 13t13.5 5zM587 -1q18 0 18 -18q0 -8 -5 -13t-13 -5t-13.5 5t-5.5 13q0 18 19 18z M394 -19q0 18 19 18q6 0 12 -4.5t6 -13.5q0 -8 -6 -13t-12 -5q-8 0 -13.5 5t-5.5 13zM499 647q5 0 9.5 -3t4.5 -9q0 -7 -4.5 -10t-9.5 -3q-4 0 -8.5 3t-4.5 10q0 6 4.5 9t8.5 3zM662 -63q0 5 3.5 9.5t8.5 4.5t8.5 -4.5t3.5 -9.5q0 -12 -12 -12t-12 12zM662 635q0 12 12 12 t12 -12q0 -13 -12 -13t-12 13zM499 -49q5 0 8 -4.5t3 -9.5q0 -12 -11 -12q-4 0 -8.5 3.5t-4.5 8.5t4.5 9.5t8.5 4.5zM579 678q0 8 8 8q6 0 6 -8q0 -2 -1.5 -4.5t-4.5 -2.5q-4 0 -6 2.5t-2 4.5zM413 686q6 0 6 -8q0 -2 -2 -4.5t-4 -2.5q-4 0 -6 2.5t-2 4.5q0 8 8 8zM587 -98 q3 0 4.5 -3t1.5 -6q0 -2 -1.5 -4t-4.5 -2t-5.5 2t-2.5 4q0 3 2.5 6t5.5 3zM413 -98q2 0 4 -3t2 -6q0 -2 -2 -4t-4 -2q-4 0 -6 2t-2 4q0 3 2 6t6 3zM496 723q0 3 3 3q5 0 5 -3q0 -5 -5 -5q-3 0 -3 5zM496 -150q0 4 3 4q5 0 5 -4q0 -3 -5 -3q-3 0 -3 3zM671 723q0 3 3 3t3 -3 q0 -5 -3 -5t-3 5zM674 -146q3 0 3 -4q0 -3 -3 -3t-3 3q0 4 3 4zM934 282q16 0 27 -11.5t11 -27.5q0 -17 -11 -28t-27 -11q-17 0 -28.5 11t-11.5 28q0 16 11.5 27.5t28.5 11.5zM894 330q0 16 11.5 27.5t28.5 11.5q16 0 27 -11.5t11 -27.5t-11 -27.5t-27 -11.5 q-17 0 -28.5 11.5t-11.5 27.5zM721 243q0 16 11.5 27.5t27.5 11.5q15 0 27 -11.5t12 -27.5q0 -17 -12 -28t-27 -11q-16 0 -27.5 11t-11.5 28zM721 330q0 16 11.5 27.5t27.5 11.5q15 0 27 -11.5t12 -27.5t-12 -27.5t-27 -11.5q-16 0 -27.5 11.5t-11.5 27.5zM1021 412 q15 0 26.5 -11.5t11.5 -26.5q0 -17 -11.5 -28.5t-26.5 -11.5q-17 0 -28 11.5t-11 28.5q0 15 11 26.5t28 11.5zM982 286q0 16 11 27t28 11q16 0 27.5 -11t11.5 -27q0 -17 -11.5 -27.5t-27.5 -10.5q-17 0 -28 10.5t-11 27.5zM982 199q0 16 11 27t28 11q15 0 26.5 -11t11.5 -27 q0 -15 -11.5 -26.5t-26.5 -11.5q-17 0 -28 11.5t-11 26.5zM809 374q0 15 11 26.5t26 11.5q16 0 27 -11.5t11 -26.5q0 -17 -11 -28.5t-27 -11.5q-15 0 -26 11.5t-11 28.5zM808 286q0 16 11.5 27t26.5 11q16 0 27 -11t11 -27q0 -17 -11 -27.5t-27 -10.5q-15 0 -26.5 10.5 t-11.5 27.5zM809 199q0 16 11 27t26 11q16 0 27 -11t11 -27q0 -15 -11 -26.5t-27 -11.5q-15 0 -26 11.5t-11 26.5zM722 156q0 14 11 25.5t27 11.5q15 0 26 -11.5t11 -25.5q0 -16 -11 -27t-26 -11q-16 0 -27 11t-11 27zM760 453q15 0 26 -10t11 -27q0 -14 -11 -25.5 t-26 -11.5q-16 0 -27 11.5t-11 25.5q0 17 11 27t27 10zM897 156q0 14 10.5 25.5t26.5 11.5q14 0 25.5 -11.5t11.5 -25.5q0 -16 -11.5 -27t-25.5 -11q-16 0 -26.5 11t-10.5 27zM897 416q0 17 10.5 27t26.5 10q14 0 25.5 -10t11.5 -27q0 -14 -11.5 -25.5t-25.5 -11.5 q-16 0 -26.5 11.5t-10.5 25.5zM986 461q0 14 10 24t25 10q14 0 24 -10t10 -24q0 -16 -10 -25.5t-24 -9.5q-15 0 -25 9.5t-10 25.5zM812 461q0 14 10 24t24 10q15 0 25 -10t10 -24q0 -16 -10 -25.5t-25 -9.5q-14 0 -24 9.5t-10 25.5zM1021 146q14 0 24 -10t10 -24 q0 -15 -10 -25t-24 -10q-15 0 -25 10t-10 25q0 14 10 24t25 10zM812 112q0 14 10 24t24 10q15 0 25 -10t10 -24q0 -15 -10 -25t-25 -10q-14 0 -24 10t-10 25zM760 534q13 0 21.5 -9t8.5 -21q0 -13 -8.5 -22t-21.5 -9t-22 9t-9 22q0 12 9 21t22 9zM934 534q12 0 20.5 -9 t8.5 -21q0 -13 -8.5 -22t-20.5 -9q-14 0 -22.5 9t-8.5 22q0 12 8.5 21t22.5 9zM760 98q13 0 21.5 -8t8.5 -21q0 -14 -8.5 -22t-21.5 -8t-22 8t-9 22q0 13 9 21t22 8zM903 69q0 13 8.5 21t22.5 8q12 0 20.5 -8t8.5 -21q0 -14 -8.5 -22t-20.5 -8q-14 0 -22.5 8t-8.5 22z M995 547q0 11 8 19t18 8q11 0 17.5 -8t6.5 -19t-6.5 -18t-17.5 -7q-10 0 -18 7t-8 18zM995 25q0 11 8 18.5t18 7.5q11 0 17.5 -7.5t6.5 -18.5t-6.5 -18.5t-17.5 -7.5q-10 0 -18 7.5t-8 18.5zM822 547q0 11 6.5 19t17.5 8t18 -8t7 -19t-7 -18t-18 -7t-17.5 7t-6.5 18zM846 51 q11 0 18 -7.5t7 -18.5t-7 -18.5t-18 -7.5t-17.5 7.5t-6.5 18.5t6.5 18.5t17.5 7.5zM740 592q0 8 6 13t14 5t13 -5t5 -13q0 -20 -18 -20q-8 0 -14 5.5t-6 14.5zM934 610q8 0 13.5 -5t5.5 -13q0 -20 -19 -20t-19 20q0 8 5.5 13t13.5 5zM934 -1q18 0 18 -18q0 -8 -5 -13t-13 -5 t-13.5 5t-5.5 13q0 18 19 18zM741 -19q0 18 19 18q6 0 12 -4.5t6 -13.5q0 -8 -6 -13t-12 -5q-8 0 -13.5 5t-5.5 13zM846 647q5 0 9.5 -3t4.5 -9q0 -7 -4.5 -10t-9.5 -3q-4 0 -8.5 3t-4.5 10q0 6 4.5 9t8.5 3zM1009 -63q0 5 3.5 9.5t8.5 4.5t8.5 -4.5t3.5 -9.5q0 -12 -12 -12 t-12 12zM1009 635q0 12 12 12t12 -12q0 -13 -12 -13t-12 13zM846 -49q5 0 8 -4.5t3 -9.5q0 -12 -11 -12q-4 0 -8.5 3.5t-4.5 8.5t4.5 9.5t8.5 4.5zM926 678q0 8 8 8q6 0 6 -8q0 -2 -1.5 -4.5t-4.5 -2.5q-4 0 -6 2.5t-2 4.5zM760 686q6 0 6 -8q0 -2 -2 -4.5t-4 -2.5 q-4 0 -6 2.5t-2 4.5q0 8 8 8zM934 -98q3 0 4.5 -3t1.5 -6q0 -2 -1.5 -4t-4.5 -2t-5.5 2t-2.5 4q0 3 2.5 6t5.5 3zM760 -98q2 0 4 -3t2 -6q0 -2 -2 -4t-4 -2q-4 0 -6 2t-2 4q0 3 2 6t6 3zM843 723q0 3 3 3q5 0 5 -3q0 -5 -5 -5q-3 0 -3 5zM843 -150q0 4 3 4q5 0 5 -4 q0 -3 -5 -3q-3 0 -3 3zM1018 723q0 3 3 3t3 -3q0 -5 -3 -5t-3 5zM1021 -146q3 0 3 -4q0 -3 -3 -3t-3 3q0 4 3 4zM1281 282q16 0 27 -11.5t11 -27.5q0 -17 -11 -28t-27 -11q-17 0 -28.5 11t-11.5 28q0 16 11.5 27.5t28.5 11.5zM1241 330q0 16 11.5 27.5t28.5 11.5 q16 0 27 -11.5t11 -27.5t-11 -27.5t-27 -11.5q-17 0 -28.5 11.5t-11.5 27.5zM1068 243q0 16 11.5 27.5t27.5 11.5q15 0 27 -11.5t12 -27.5q0 -17 -12 -28t-27 -11q-16 0 -27.5 11t-11.5 28zM1068 330q0 16 11.5 27.5t27.5 11.5q15 0 27 -11.5t12 -27.5t-12 -27.5t-27 -11.5 q-16 0 -27.5 11.5t-11.5 27.5zM1368 412q15 0 26.5 -11.5t11.5 -26.5q0 -17 -11.5 -28.5t-26.5 -11.5q-17 0 -28 11.5t-11 28.5q0 15 11 26.5t28 11.5zM1329 286q0 16 11 27t28 11q16 0 27.5 -11t11.5 -27q0 -17 -11.5 -27.5t-27.5 -10.5q-17 0 -28 10.5t-11 27.5zM1329 199 q0 16 11 27t28 11q15 0 26.5 -11t11.5 -27q0 -15 -11.5 -26.5t-26.5 -11.5q-17 0 -28 11.5t-11 26.5zM1156 374q0 15 11 26.5t26 11.5q16 0 27 -11.5t11 -26.5q0 -17 -11 -28.5t-27 -11.5q-15 0 -26 11.5t-11 28.5zM1155 286q0 16 11.5 27t26.5 11q16 0 27 -11t11 -27 q0 -17 -11 -27.5t-27 -10.5q-15 0 -26.5 10.5t-11.5 27.5zM1156 199q0 16 11 27t26 11q16 0 27 -11t11 -27q0 -15 -11 -26.5t-27 -11.5q-15 0 -26 11.5t-11 26.5zM1069 156q0 14 11 25.5t27 11.5q15 0 26 -11.5t11 -25.5q0 -16 -11 -27t-26 -11q-16 0 -27 11t-11 27z M1107 453q15 0 26 -10t11 -27q0 -14 -11 -25.5t-26 -11.5q-16 0 -27 11.5t-11 25.5q0 17 11 27t27 10zM1244 156q0 14 10.5 25.5t26.5 11.5q14 0 25.5 -11.5t11.5 -25.5q0 -16 -11.5 -27t-25.5 -11q-16 0 -26.5 11t-10.5 27zM1244 416q0 17 10.5 27t26.5 10q14 0 25.5 -10 t11.5 -27q0 -14 -11.5 -25.5t-25.5 -11.5q-16 0 -26.5 11.5t-10.5 25.5zM1333 461q0 14 10 24t25 10q14 0 24 -10t10 -24q0 -16 -10 -25.5t-24 -9.5q-15 0 -25 9.5t-10 25.5zM1159 461q0 14 10 24t24 10q15 0 25 -10t10 -24q0 -16 -10 -25.5t-25 -9.5q-14 0 -24 9.5 t-10 25.5zM1368 146q14 0 24 -10t10 -24q0 -15 -10 -25t-24 -10q-15 0 -25 10t-10 25q0 14 10 24t25 10zM1159 112q0 14 10 24t24 10q15 0 25 -10t10 -24q0 -15 -10 -25t-25 -10q-14 0 -24 10t-10 25zM1107 534q13 0 21.5 -9t8.5 -21q0 -13 -8.5 -22t-21.5 -9t-22 9t-9 22 q0 12 9 21t22 9zM1281 534q12 0 20.5 -9t8.5 -21q0 -13 -8.5 -22t-20.5 -9q-14 0 -22.5 9t-8.5 22q0 12 8.5 21t22.5 9zM1107 98q13 0 21.5 -8t8.5 -21q0 -14 -8.5 -22t-21.5 -8t-22 8t-9 22q0 13 9 21t22 8zM1250 69q0 13 8.5 21t22.5 8q12 0 20.5 -8t8.5 -21 q0 -14 -8.5 -22t-20.5 -8q-14 0 -22.5 8t-8.5 22zM1342 547q0 11 8 19t18 8q11 0 17.5 -8t6.5 -19t-6.5 -18t-17.5 -7q-10 0 -18 7t-8 18zM1342 25q0 11 8 18.5t18 7.5q11 0 17.5 -7.5t6.5 -18.5t-6.5 -18.5t-17.5 -7.5q-10 0 -18 7.5t-8 18.5zM1169 547q0 11 6.5 19t17.5 8 t18 -8t7 -19t-7 -18t-18 -7t-17.5 7t-6.5 18zM1193 51q11 0 18 -7.5t7 -18.5t-7 -18.5t-18 -7.5t-17.5 7.5t-6.5 18.5t6.5 18.5t17.5 7.5zM1087 592q0 8 6 13t14 5t13 -5t5 -13q0 -20 -18 -20q-8 0 -14 5.5t-6 14.5zM1281 610q8 0 13.5 -5t5.5 -13q0 -20 -19 -20t-19 20 q0 8 5.5 13t13.5 5zM1281 -1q18 0 18 -18q0 -8 -5 -13t-13 -5t-13.5 5t-5.5 13q0 18 19 18zM1088 -19q0 18 19 18q6 0 12 -4.5t6 -13.5q0 -8 -6 -13t-12 -5q-8 0 -13.5 5t-5.5 13zM1193 647q5 0 9.5 -3t4.5 -9q0 -7 -4.5 -10t-9.5 -3q-4 0 -8.5 3t-4.5 10q0 6 4.5 9t8.5 3z M1356 -63q0 5 3.5 9.5t8.5 4.5t8.5 -4.5t3.5 -9.5q0 -12 -12 -12t-12 12zM1356 635q0 12 12 12t12 -12q0 -13 -12 -13t-12 13zM1193 -49q5 0 8 -4.5t3 -9.5q0 -12 -11 -12q-4 0 -8.5 3.5t-4.5 8.5t4.5 9.5t8.5 4.5zM1273 678q0 8 8 8q6 0 6 -8q0 -2 -1.5 -4.5t-4.5 -2.5 q-4 0 -6 2.5t-2 4.5zM1107 686q6 0 6 -8q0 -2 -2 -4.5t-4 -2.5q-4 0 -6 2.5t-2 4.5q0 8 8 8zM1281 -98q3 0 4.5 -3t1.5 -6q0 -2 -1.5 -4t-4.5 -2t-5.5 2t-2.5 4q0 3 2.5 6t5.5 3zM1107 -98q2 0 4 -3t2 -6q0 -2 -2 -4t-4 -2q-4 0 -6 2t-2 4q0 3 2 6t6 3zM1190 723q0 3 3 3 q5 0 5 -3q0 -5 -5 -5q-3 0 -3 5zM1190 -150q0 4 3 4q5 0 5 -4q0 -3 -5 -3q-3 0 -3 3zM1365 723q0 3 3 3t3 -3q0 -5 -3 -5t-3 5zM1368 -146q3 0 3 -4q0 -3 -3 -3t-3 3q0 4 3 4zM1628 282q16 0 27 -11.5t11 -27.5q0 -17 -11 -28t-27 -11q-17 0 -28.5 11t-11.5 28 q0 16 11.5 27.5t28.5 11.5zM1588 330q0 16 11.5 27.5t28.5 11.5q16 0 27 -11.5t11 -27.5t-11 -27.5t-27 -11.5q-17 0 -28.5 11.5t-11.5 27.5zM1415 243q0 16 11.5 27.5t27.5 11.5q15 0 27 -11.5t12 -27.5q0 -17 -12 -28t-27 -11q-16 0 -27.5 11t-11.5 28zM1415 330 q0 16 11.5 27.5t27.5 11.5q15 0 27 -11.5t12 -27.5t-12 -27.5t-27 -11.5q-16 0 -27.5 11.5t-11.5 27.5zM1715 412q15 0 26.5 -11.5t11.5 -26.5q0 -17 -11.5 -28.5t-26.5 -11.5q-17 0 -28 11.5t-11 28.5q0 15 11 26.5t28 11.5zM1676 286q0 16 11 27t28 11q16 0 27.5 -11 t11.5 -27q0 -17 -11.5 -27.5t-27.5 -10.5q-17 0 -28 10.5t-11 27.5zM1676 199q0 16 11 27t28 11q15 0 26.5 -11t11.5 -27q0 -15 -11.5 -26.5t-26.5 -11.5q-17 0 -28 11.5t-11 26.5zM1503 374q0 15 11 26.5t26 11.5q16 0 27 -11.5t11 -26.5q0 -17 -11 -28.5t-27 -11.5 q-15 0 -26 11.5t-11 28.5zM1502 286q0 16 11.5 27t26.5 11q16 0 27 -11t11 -27q0 -17 -11 -27.5t-27 -10.5q-15 0 -26.5 10.5t-11.5 27.5zM1503 199q0 16 11 27t26 11q16 0 27 -11t11 -27q0 -15 -11 -26.5t-27 -11.5q-15 0 -26 11.5t-11 26.5zM1416 156q0 14 11 25.5 t27 11.5q15 0 26 -11.5t11 -25.5q0 -16 -11 -27t-26 -11q-16 0 -27 11t-11 27zM1454 453q15 0 26 -10t11 -27q0 -14 -11 -25.5t-26 -11.5q-16 0 -27 11.5t-11 25.5q0 17 11 27t27 10zM1591 156q0 14 10.5 25.5t26.5 11.5q14 0 25.5 -11.5t11.5 -25.5q0 -16 -11.5 -27 t-25.5 -11q-16 0 -26.5 11t-10.5 27zM1591 416q0 17 10.5 27t26.5 10q14 0 25.5 -10t11.5 -27q0 -14 -11.5 -25.5t-25.5 -11.5q-16 0 -26.5 11.5t-10.5 25.5zM1680 461q0 14 10 24t25 10q14 0 24 -10t10 -24q0 -16 -10 -25.5t-24 -9.5q-15 0 -25 9.5t-10 25.5zM1506 461 q0 14 10 24t24 10q15 0 25 -10t10 -24q0 -16 -10 -25.5t-25 -9.5q-14 0 -24 9.5t-10 25.5zM1715 146q14 0 24 -10t10 -24q0 -15 -10 -25t-24 -10q-15 0 -25 10t-10 25q0 14 10 24t25 10zM1506 112q0 14 10 24t24 10q15 0 25 -10t10 -24q0 -15 -10 -25t-25 -10q-14 0 -24 10 t-10 25zM1454 534q13 0 21.5 -9t8.5 -21q0 -13 -8.5 -22t-21.5 -9t-22 9t-9 22q0 12 9 21t22 9zM1628 534q12 0 20.5 -9t8.5 -21q0 -13 -8.5 -22t-20.5 -9q-14 0 -22.5 9t-8.5 22q0 12 8.5 21t22.5 9zM1454 98q13 0 21.5 -8t8.5 -21q0 -14 -8.5 -22t-21.5 -8t-22 8t-9 22 q0 13 9 21t22 8zM1597 69q0 13 8.5 21t22.5 8q12 0 20.5 -8t8.5 -21q0 -14 -8.5 -22t-20.5 -8q-14 0 -22.5 8t-8.5 22zM1689 547q0 11 8 19t18 8q11 0 17.5 -8t6.5 -19t-6.5 -18t-17.5 -7q-10 0 -18 7t-8 18zM1689 25q0 11 8 18.5t18 7.5q11 0 17.5 -7.5t6.5 -18.5 t-6.5 -18.5t-17.5 -7.5q-10 0 -18 7.5t-8 18.5zM1516 547q0 11 6.5 19t17.5 8t18 -8t7 -19t-7 -18t-18 -7t-17.5 7t-6.5 18zM1540 51q11 0 18 -7.5t7 -18.5t-7 -18.5t-18 -7.5t-17.5 7.5t-6.5 18.5t6.5 18.5t17.5 7.5zM1434 592q0 8 6 13t14 5t13 -5t5 -13q0 -20 -18 -20 q-8 0 -14 5.5t-6 14.5zM1628 610q8 0 13.5 -5t5.5 -13q0 -20 -19 -20t-19 20q0 8 5.5 13t13.5 5zM1628 -1q18 0 18 -18q0 -8 -5 -13t-13 -5t-13.5 5t-5.5 13q0 18 19 18zM1435 -19q0 18 19 18q6 0 12 -4.5t6 -13.5q0 -8 -6 -13t-12 -5q-8 0 -13.5 5t-5.5 13zM1540 647 q5 0 9.5 -3t4.5 -9q0 -7 -4.5 -10t-9.5 -3q-4 0 -8.5 3t-4.5 10q0 6 4.5 9t8.5 3zM1703 -63q0 5 3.5 9.5t8.5 4.5t8.5 -4.5t3.5 -9.5q0 -12 -12 -12t-12 12zM1703 635q0 12 12 12t12 -12q0 -13 -12 -13t-12 13zM1540 -49q5 0 8 -4.5t3 -9.5q0 -12 -11 -12q-4 0 -8.5 3.5 t-4.5 8.5t4.5 9.5t8.5 4.5zM1620 678q0 8 8 8q6 0 6 -8q0 -2 -1.5 -4.5t-4.5 -2.5q-4 0 -6 2.5t-2 4.5zM1454 686q6 0 6 -8q0 -2 -2 -4.5t-4 -2.5q-4 0 -6 2.5t-2 4.5q0 8 8 8zM1628 -98q3 0 4.5 -3t1.5 -6q0 -2 -1.5 -4t-4.5 -2t-5.5 2t-2.5 4q0 3 2.5 6t5.5 3zM1454 -98 q2 0 4 -3t2 -6q0 -2 -2 -4t-4 -2q-4 0 -6 2t-2 4q0 3 2 6t6 3zM1537 723q0 3 3 3q5 0 5 -3q0 -5 -5 -5q-3 0 -3 5zM1537 -150q0 4 3 4q5 0 5 -4q0 -3 -5 -3q-3 0 -3 3zM1712 723q0 3 3 3t3 -3q0 -5 -3 -5t-3 5zM1715 -146q3 0 3 -4q0 -3 -3 -3t-3 3q0 4 3 4zM1975 282 q16 0 27 -11.5t11 -27.5q0 -17 -11 -28t-27 -11q-17 0 -28.5 11t-11.5 28q0 16 11.5 27.5t28.5 11.5zM1935 330q0 16 11.5 27.5t28.5 11.5q16 0 27 -11.5t11 -27.5t-11 -27.5t-27 -11.5q-17 0 -28.5 11.5t-11.5 27.5zM1762 243q0 16 11.5 27.5t27.5 11.5q15 0 27 -11.5 t12 -27.5q0 -17 -12 -28t-27 -11q-16 0 -27.5 11t-11.5 28zM1762 330q0 16 11.5 27.5t27.5 11.5q15 0 27 -11.5t12 -27.5t-12 -27.5t-27 -11.5q-16 0 -27.5 11.5t-11.5 27.5zM2062 412q15 0 26.5 -11.5t11.5 -26.5q0 -17 -11.5 -28.5t-26.5 -11.5q-17 0 -28 11.5t-11 28.5 q0 15 11 26.5t28 11.5zM2023 286q0 16 11 27t28 11q16 0 27.5 -11t11.5 -27q0 -17 -11.5 -27.5t-27.5 -10.5q-17 0 -28 10.5t-11 27.5zM2023 199q0 16 11 27t28 11q15 0 26.5 -11t11.5 -27q0 -15 -11.5 -26.5t-26.5 -11.5q-17 0 -28 11.5t-11 26.5zM1850 374q0 15 11 26.5 t26 11.5q16 0 27 -11.5t11 -26.5q0 -17 -11 -28.5t-27 -11.5q-15 0 -26 11.5t-11 28.5zM1849 286q0 16 11.5 27t26.5 11q16 0 27 -11t11 -27q0 -17 -11 -27.5t-27 -10.5q-15 0 -26.5 10.5t-11.5 27.5zM1850 199q0 16 11 27t26 11q16 0 27 -11t11 -27q0 -15 -11 -26.5 t-27 -11.5q-15 0 -26 11.5t-11 26.5zM1763 156q0 14 11 25.5t27 11.5q15 0 26 -11.5t11 -25.5q0 -16 -11 -27t-26 -11q-16 0 -27 11t-11 27zM1801 453q15 0 26 -10t11 -27q0 -14 -11 -25.5t-26 -11.5q-16 0 -27 11.5t-11 25.5q0 17 11 27t27 10zM1938 156q0 14 10.5 25.5 t26.5 11.5q14 0 25.5 -11.5t11.5 -25.5q0 -16 -11.5 -27t-25.5 -11q-16 0 -26.5 11t-10.5 27zM1938 416q0 17 10.5 27t26.5 10q14 0 25.5 -10t11.5 -27q0 -14 -11.5 -25.5t-25.5 -11.5q-16 0 -26.5 11.5t-10.5 25.5zM2027 461q0 14 10 24t25 10q14 0 24 -10t10 -24 q0 -16 -10 -25.5t-24 -9.5q-15 0 -25 9.5t-10 25.5zM1853 461q0 14 10 24t24 10q15 0 25 -10t10 -24q0 -16 -10 -25.5t-25 -9.5q-14 0 -24 9.5t-10 25.5zM2062 146q14 0 24 -10t10 -24q0 -15 -10 -25t-24 -10q-15 0 -25 10t-10 25q0 14 10 24t25 10zM1853 112q0 14 10 24 t24 10q15 0 25 -10t10 -24q0 -15 -10 -25t-25 -10q-14 0 -24 10t-10 25zM1801 534q13 0 21.5 -9t8.5 -21q0 -13 -8.5 -22t-21.5 -9t-22 9t-9 22q0 12 9 21t22 9zM1975 534q12 0 20.5 -9t8.5 -21q0 -13 -8.5 -22t-20.5 -9q-14 0 -22.5 9t-8.5 22q0 12 8.5 21t22.5 9zM1801 98 q13 0 21.5 -8t8.5 -21q0 -14 -8.5 -22t-21.5 -8t-22 8t-9 22q0 13 9 21t22 8zM1944 69q0 13 8.5 21t22.5 8q12 0 20.5 -8t8.5 -21q0 -14 -8.5 -22t-20.5 -8q-14 0 -22.5 8t-8.5 22zM2036 547q0 11 8 19t18 8q11 0 17.5 -8t6.5 -19t-6.5 -18t-17.5 -7q-10 0 -18 7t-8 18z M2036 25q0 11 8 18.5t18 7.5q11 0 17.5 -7.5t6.5 -18.5t-6.5 -18.5t-17.5 -7.5q-10 0 -18 7.5t-8 18.5zM1863 547q0 11 6.5 19t17.5 8t18 -8t7 -19t-7 -18t-18 -7t-17.5 7t-6.5 18zM1887 51q11 0 18 -7.5t7 -18.5t-7 -18.5t-18 -7.5t-17.5 7.5t-6.5 18.5t6.5 18.5t17.5 7.5z M1781 592q0 8 6 13t14 5t13 -5t5 -13q0 -20 -18 -20q-8 0 -14 5.5t-6 14.5zM1975 610q8 0 13.5 -5t5.5 -13q0 -20 -19 -20t-19 20q0 8 5.5 13t13.5 5zM1975 -1q18 0 18 -18q0 -8 -5 -13t-13 -5t-13.5 5t-5.5 13q0 18 19 18zM1782 -19q0 18 19 18q6 0 12 -4.5t6 -13.5 q0 -8 -6 -13t-12 -5q-8 0 -13.5 5t-5.5 13zM1887 647q5 0 9.5 -3t4.5 -9q0 -7 -4.5 -10t-9.5 -3q-4 0 -8.5 3t-4.5 10q0 6 4.5 9t8.5 3zM2050 -63q0 5 3.5 9.5t8.5 4.5t8.5 -4.5t3.5 -9.5q0 -12 -12 -12t-12 12zM2050 635q0 12 12 12t12 -12q0 -13 -12 -13t-12 13zM1887 -49 q5 0 8 -4.5t3 -9.5q0 -12 -11 -12q-4 0 -8.5 3.5t-4.5 8.5t4.5 9.5t8.5 4.5zM1967 678q0 8 8 8q6 0 6 -8q0 -2 -1.5 -4.5t-4.5 -2.5q-4 0 -6 2.5t-2 4.5zM1801 686q6 0 6 -8q0 -2 -2 -4.5t-4 -2.5q-4 0 -6 2.5t-2 4.5q0 8 8 8zM1975 -98q3 0 4.5 -3t1.5 -6q0 -2 -1.5 -4 t-4.5 -2t-5.5 2t-2.5 4q0 3 2.5 6t5.5 3zM1801 -98q2 0 4 -3t2 -6q0 -2 -2 -4t-4 -2q-4 0 -6 2t-2 4q0 3 2 6t6 3zM1884 723q0 3 3 3q5 0 5 -3q0 -5 -5 -5q-3 0 -3 5zM1884 -150q0 4 3 4q5 0 5 -4q0 -3 -5 -3q-3 0 -3 3zM2059 723q0 3 3 3t3 -3q0 -5 -3 -5t-3 5zM2062 -146 q3 0 3 -4q0 -3 -3 -3t-3 3q0 4 3 4zM2322 282q16 0 27 -11.5t11 -27.5q0 -17 -11 -28t-27 -11q-17 0 -28.5 11t-11.5 28q0 16 11.5 27.5t28.5 11.5zM2282 330q0 16 11.5 27.5t28.5 11.5q16 0 27 -11.5t11 -27.5t-11 -27.5t-27 -11.5q-17 0 -28.5 11.5t-11.5 27.5zM2109 243 q0 16 11.5 27.5t27.5 11.5q15 0 27 -11.5t12 -27.5q0 -17 -12 -28t-27 -11q-16 0 -27.5 11t-11.5 28zM2109 330q0 16 11.5 27.5t27.5 11.5q15 0 27 -11.5t12 -27.5t-12 -27.5t-27 -11.5q-16 0 -27.5 11.5t-11.5 27.5zM2409 412q15 0 26.5 -11.5t11.5 -26.5 q0 -17 -11.5 -28.5t-26.5 -11.5q-17 0 -28 11.5t-11 28.5q0 15 11 26.5t28 11.5zM2370 286q0 16 11 27t28 11q16 0 27.5 -11t11.5 -27q0 -17 -11.5 -27.5t-27.5 -10.5q-17 0 -28 10.5t-11 27.5zM2370 199q0 16 11 27t28 11q15 0 26.5 -11t11.5 -27q0 -15 -11.5 -26.5 t-26.5 -11.5q-17 0 -28 11.5t-11 26.5zM2197 374q0 15 11 26.5t26 11.5q16 0 27 -11.5t11 -26.5q0 -17 -11 -28.5t-27 -11.5q-15 0 -26 11.5t-11 28.5zM2196 286q0 16 11.5 27t26.5 11q16 0 27 -11t11 -27q0 -17 -11 -27.5t-27 -10.5q-15 0 -26.5 10.5t-11.5 27.5zM2197 199 q0 16 11 27t26 11q16 0 27 -11t11 -27q0 -15 -11 -26.5t-27 -11.5q-15 0 -26 11.5t-11 26.5zM2110 156q0 14 11 25.5t27 11.5q15 0 26 -11.5t11 -25.5q0 -16 -11 -27t-26 -11q-16 0 -27 11t-11 27zM2148 453q15 0 26 -10t11 -27q0 -14 -11 -25.5t-26 -11.5q-16 0 -27 11.5 t-11 25.5q0 17 11 27t27 10zM2285 156q0 14 10.5 25.5t26.5 11.5q14 0 25.5 -11.5t11.5 -25.5q0 -16 -11.5 -27t-25.5 -11q-16 0 -26.5 11t-10.5 27zM2285 416q0 17 10.5 27t26.5 10q14 0 25.5 -10t11.5 -27q0 -14 -11.5 -25.5t-25.5 -11.5q-16 0 -26.5 11.5t-10.5 25.5z M2374 461q0 14 10 24t25 10q14 0 24 -10t10 -24q0 -16 -10 -25.5t-24 -9.5q-15 0 -25 9.5t-10 25.5zM2200 461q0 14 10 24t24 10q15 0 25 -10t10 -24q0 -16 -10 -25.5t-25 -9.5q-14 0 -24 9.5t-10 25.5zM2409 146q14 0 24 -10t10 -24q0 -15 -10 -25t-24 -10q-15 0 -25 10 t-10 25q0 14 10 24t25 10zM2200 112q0 14 10 24t24 10q15 0 25 -10t10 -24q0 -15 -10 -25t-25 -10q-14 0 -24 10t-10 25zM2148 534q13 0 21.5 -9t8.5 -21q0 -13 -8.5 -22t-21.5 -9t-22 9t-9 22q0 12 9 21t22 9zM2322 534q12 0 20.5 -9t8.5 -21q0 -13 -8.5 -22t-20.5 -9 q-14 0 -22.5 9t-8.5 22q0 12 8.5 21t22.5 9zM2148 98q13 0 21.5 -8t8.5 -21q0 -14 -8.5 -22t-21.5 -8t-22 8t-9 22q0 13 9 21t22 8zM2291 69q0 13 8.5 21t22.5 8q12 0 20.5 -8t8.5 -21q0 -14 -8.5 -22t-20.5 -8q-14 0 -22.5 8t-8.5 22zM2383 547q0 11 8 19t18 8 q11 0 17.5 -8t6.5 -19t-6.5 -18t-17.5 -7q-10 0 -18 7t-8 18zM2383 25q0 11 8 18.5t18 7.5q11 0 17.5 -7.5t6.5 -18.5t-6.5 -18.5t-17.5 -7.5q-10 0 -18 7.5t-8 18.5zM2210 547q0 11 6.5 19t17.5 8t18 -8t7 -19t-7 -18t-18 -7t-17.5 7t-6.5 18zM2234 51q11 0 18 -7.5 t7 -18.5t-7 -18.5t-18 -7.5t-17.5 7.5t-6.5 18.5t6.5 18.5t17.5 7.5zM2128 592q0 8 6 13t14 5t13 -5t5 -13q0 -20 -18 -20q-8 0 -14 5.5t-6 14.5zM2322 610q8 0 13.5 -5t5.5 -13q0 -20 -19 -20t-19 20q0 8 5.5 13t13.5 5zM2322 -1q18 0 18 -18q0 -8 -5 -13t-13 -5t-13.5 5 t-5.5 13q0 18 19 18zM2129 -19q0 18 19 18q6 0 12 -4.5t6 -13.5q0 -8 -6 -13t-12 -5q-8 0 -13.5 5t-5.5 13zM2234 647q5 0 9.5 -3t4.5 -9q0 -7 -4.5 -10t-9.5 -3q-4 0 -8.5 3t-4.5 10q0 6 4.5 9t8.5 3zM2397 -63q0 5 3.5 9.5t8.5 4.5t8.5 -4.5t3.5 -9.5q0 -12 -12 -12 t-12 12zM2397 635q0 12 12 12t12 -12q0 -13 -12 -13t-12 13zM2234 -49q5 0 8 -4.5t3 -9.5q0 -12 -11 -12q-4 0 -8.5 3.5t-4.5 8.5t4.5 9.5t8.5 4.5zM2314 678q0 8 8 8q6 0 6 -8q0 -2 -1.5 -4.5t-4.5 -2.5q-4 0 -6 2.5t-2 4.5zM2148 686q6 0 6 -8q0 -2 -2 -4.5t-4 -2.5 q-4 0 -6 2.5t-2 4.5q0 8 8 8zM2322 -98q3 0 4.5 -3t1.5 -6q0 -2 -1.5 -4t-4.5 -2t-5.5 2t-2.5 4q0 3 2.5 6t5.5 3zM2148 -98q2 0 4 -3t2 -6q0 -2 -2 -4t-4 -2q-4 0 -6 2t-2 4q0 3 2 6t6 3zM2231 723q0 3 3 3q5 0 5 -3q0 -5 -5 -5q-3 0 -3 5zM2231 -150q0 4 3 4q5 0 5 -4 q0 -3 -5 -3q-3 0 -3 3zM2406 723q0 3 3 3t3 -3q0 -5 -3 -5t-3 5zM2409 -146q3 0 3 -4q0 -3 -3 -3t-3 3q0 4 3 4zM2493 281q15 0 26 -11t11 -27q0 -17 -11 -28t-26 -11q-17 0 -28 11t-11 28q0 16 11 27t28 11zM2493 369q15 0 26 -12t11 -27q0 -16 -11 -27t-26 -11 q-17 0 -28 11t-11 27q0 15 11 27t28 12zM2493 453q15 0 25.5 -10t10.5 -27q0 -15 -10.5 -26t-25.5 -11q-17 0 -27 11t-10 26q0 17 10 27t27 10zM2456 155q0 15 10 25.5t27 10.5q15 0 25.5 -10.5t10.5 -25.5t-10.5 -26t-25.5 -11q-17 0 -27 11t-10 26zM2540 286q0 15 10.5 26 t25.5 11q14 0 25 -11t11 -26t-11 -25.5t-25 -10.5q-15 0 -25.5 10.5t-10.5 25.5zM2576 409q14 0 24 -10.5t10 -25.5t-10 -25t-24 -10t-24 10t-10 25t10 25.5t24 10.5zM2542 200q0 14 10 23.5t24 9.5t24 -9.5t10 -23.5q0 -15 -10 -25.5t-24 -10.5t-24 10.5t-10 25.5z M2493 535q12 0 21 -9t9 -22q0 -12 -9 -21.5t-21 -9.5q-13 0 -22.5 9.5t-9.5 21.5q0 13 9.5 22t22.5 9zM2493 98q12 0 21 -8.5t9 -20.5q0 -14 -9 -22.5t-21 -8.5q-13 0 -22.5 8.5t-9.5 22.5q0 12 9.5 20.5t22.5 8.5zM2576 490q12 0 21 -9t9 -20q0 -12 -9 -21.5t-21 -9.5 t-21 9.5t-9 21.5q0 11 9 20t21 9zM2633 330q0 12 8.5 20.5t21.5 8.5q12 0 20.5 -8.5t8.5 -20.5q0 -13 -8.5 -21.5t-20.5 -8.5q-13 0 -21.5 8.5t-8.5 21.5zM2633 243q0 11 8.5 20t21.5 9q12 0 20.5 -9t8.5 -20q0 -13 -8.5 -21t-20.5 -8q-13 0 -21.5 8t-8.5 21zM2546 112 q0 11 9 20t21 9t20.5 -9t8.5 -20q0 -13 -8.5 -21t-20.5 -8t-21 8t-9 21zM2663 442q10 0 17.5 -7.5t7.5 -18.5q0 -10 -7.5 -17t-17.5 -7q-11 0 -17.5 7t-6.5 17q0 11 6.5 18.5t17.5 7.5zM2663 180q10 0 17.5 -7.5t7.5 -17.5q0 -11 -7.5 -17.5t-17.5 -6.5q-11 0 -17.5 6.5 t-6.5 17.5q0 10 6.5 17.5t17.5 7.5zM2576 567q8 0 13.5 -6t5.5 -14t-5.5 -13t-13.5 -5q-19 0 -19 18q0 8 5 14t14 6zM2493 610q8 0 12.5 -5t4.5 -13t-4.5 -14t-12.5 -6q-9 0 -14.5 6t-5.5 14t5.5 13t14.5 5zM2576 42q8 0 13.5 -4.5t5.5 -12.5t-5.5 -13.5t-13.5 -5.5 q-19 0 -19 19q0 17 19 17zM2751 304q6 0 11.5 -5t5.5 -13q0 -7 -5.5 -13t-11.5 -6q-9 0 -14 6t-5 13q0 8 5 13t14 5zM2474 -19q0 18 19 18q6 0 11.5 -5t5.5 -13t-5.5 -13t-11.5 -5q-9 0 -14 5t-5 13zM2646 504q0 7 4.5 12t12.5 5q7 0 11.5 -5t4.5 -12q0 -16 -16 -16 q-17 0 -17 16zM2663 84q16 0 16 -15q0 -17 -16 -17q-17 0 -17 17q0 15 17 15zM2751 389q6 0 10.5 -4t4.5 -12q0 -7 -4.5 -12t-10.5 -5q-8 0 -12.5 5t-4.5 12q0 16 17 16zM2734 200q0 5 4.5 10t12.5 5q5 0 10 -5t5 -10q0 -8 -5 -12.5t-10 -4.5q-17 0 -17 17zM2738 461 q0 5 4 8t9 3q10 0 10 -11q0 -5 -3 -8.5t-7 -3.5q-5 0 -9 3.5t-4 8.5zM2751 123q10 0 10 -11t-10 -11q-5 0 -9 3t-4 8t4 8t9 3zM2576 -54q3 0 6 -2.5t3 -7.5q0 -2 -3 -4.5t-6 -2.5q-9 0 -9 7q0 10 9 10zM2576 642q3 0 6 -1.5t3 -5.5t-3 -6t-6 -2q-9 0 -9 8q0 7 9 7zM2663 599 q7 0 7 -7q0 -10 -7 -10q-8 0 -8 10q0 7 8 7zM2655 -19q0 8 8 8q7 0 7 -8q0 -7 -7 -7q-8 0 -8 7zM2493 -98q6 0 6 -9q0 -5 -6 -5q-9 0 -9 5q0 9 9 9zM2493 685q6 0 6 -7t-6 -7q-9 0 -9 7t9 7zM2837 336q7 0 7 -6q0 -7 -7 -7q-6 0 -6 7q0 6 6 6zM2831 243q0 6 6 6q7 0 7 -6 t-7 -6q-6 0 -6 6zM2751 31q4 0 4 -6t-4 -6q-6 0 -6 6t6 6zM2745 547q0 7 6 7q4 0 4 -7q0 -5 -4 -5q-6 0 -6 5zM2837 421q5 0 5 -5q0 -4 -5 -4t-5 4q0 5 5 5zM2837 160q4 0 4 -5q0 -4 -4 -4q-5 0 -5 4q0 5 5 5zM2837 508q3 0 3 -4q0 -3 -3 -3q-2 0 -2 3q0 4 2 4zM2837 71 q1 0 2 -1l1 -1q0 -4 -3 -4q-2 0 -2 4v1q1 1 2 1zM2663 681q3 0 3 -3h-1q0 -1 -2 -1l-4 1q0 3 4 3zM2576 724h2l1 -1q0 -3 -3 -3q-1 0 -1 1q-2 0 -2 2zM2576 -148q1 0 1 -0.5t1 -0.5l1 -1q0 -1 -3 -1h-1q-2 0 -2 1zM2662 -107q0 3 1 3q2 0 2 -3q0 -1 -2 -1q-1 0 -1 1z M2751 -61l1 -1v-2l-1 -1h-2v1q0 3 2 3z"></glyph>
      <glyph glyph-name="l_i_b_e_r_a_l_hy_m_i_n_d_e_d_sp_p_e_o_p_l_e_ap_s" d="M6112 242q0 60 18.5 107.5t50 80t73.5 49.5t89 17q59 0 98.5 -29t54.5 -71h25l-10 91v223h105v-710h-105l10 88h-25q-15 -42 -54.5 -71t-98.5 -29q-47 0 -89 17t-73.5 49.5t-50 80t-18.5 107.5zM5183 496q59 0 98.5 -29t54.5 -71h25l-10 91v223h105v-710h-105l10 88h-25 q-15 -42 -54.5 -71t-98.5 -29q-47 0 -89 17t-73.5 49.5t-50 80t-18.5 107.5t18.5 107.5t50 80t73.5 49.5t89 17zM531 710h105v-223l-10 -91h25q15 42 54.5 71t98.5 29q47 0 89 -17t73.5 -49.5t50 -80t18.5 -107.5t-18.5 -107.5t-50 -80t-73.5 -49.5t-89 -17q-59 0 -98.5 29 t-54.5 71h-25l10 -88h-105v710zM6964 -193v677h105l-10 -88h25q15 42 54.5 71t98.5 29q47 0 89 -17t73.5 -49.5t50 -80t18.5 -107.5t-18.5 -107.5t-50 -80t-73.5 -49.5t-89 -17q-59 0 -98.5 29t-54.5 71h-25l10 -91v-190h-105zM8821 484l-10 -88h25q15 42 54.5 71t98.5 29 q47 0 89 -17t73.5 -49.5t50 -80t18.5 -107.5t-18.5 -107.5t-50 -80t-73.5 -49.5t-89 -17q-59 0 -98.5 29t-54.5 71h-25l10 -91v-190h-105v677h105zM8356 496q57 0 104 -19t81 -52.5t52.5 -80t18.5 -102.5q0 -55 -18.5 -102t-52.5 -80.5t-81 -52.5t-104 -19t-104 19t-81 52.5 t-52.5 80.5t-18.5 102q0 56 18.5 102.5t52.5 80t81 52.5t104 19zM3238 0v484h105l-5 -89h25q5 17 16 35t29.5 32.5t44.5 24t61 9.5q60 0 99 -29.5t58 -78.5h22q5 17 18.5 36t35.5 35t50.5 26.5t63.5 10.5q84 0 130 -51.5t46 -141.5v-303h-105v251q0 82 -27.5 117t-94.5 35 q-59 0 -89.5 -42.5t-30.5 -111.5v-249h-105v251q0 82 -27.5 117t-94.5 35q-59 0 -89.5 -42.5t-30.5 -111.5v-249h-105zM1115 239q0 51 16.5 97.5t48 82t77.5 56.5t105 21q62 0 107.5 -22t74 -60.5t39.5 -89t3 -107.5h-366q9 -61 51.5 -98t109.5 -37q28 0 52.5 7t44.5 17 t35 22.5t24 22.5l51 -79q-10 -9 -27.5 -23.5t-43 -28t-60.5 -23t-82 -9.5q-61 0 -109 18.5t-81.5 51.5t-51.5 79.5t-18 101.5zM5560 239q0 51 16.5 97.5t48 82t77.5 56.5t105 21q62 0 107.5 -22t74 -60.5t39.5 -89t3 -107.5h-366q9 -61 51.5 -98t109.5 -37q28 0 52.5 7 t44.5 17t35 22.5t24 22.5l51 -79q-10 -9 -27.5 -23.5t-43 -28t-60.5 -23t-82 -9.5q-61 0 -109 18.5t-81.5 51.5t-51.5 79.5t-18 101.5zM9534 239q0 51 16.5 97.5t48 82t77.5 56.5t105 21q62 0 107.5 -22t74 -60.5t39.5 -89t3 -107.5h-366q9 -61 51.5 -98t109.5 -37 q28 0 52.5 7t44.5 17t35 22.5t24 22.5l51 -79q-10 -9 -27.5 -23.5t-43 -28t-60.5 -23t-82 -9.5q-61 0 -109 18.5t-81.5 51.5t-51.5 79.5t-18 101.5zM7795 496q62 0 107.5 -22t74 -60.5t39.5 -89t3 -107.5h-366q9 -61 51.5 -98t109.5 -37q28 0 52.5 7t44.5 17t35 22.5 t24 22.5l51 -79q-10 -9 -27.5 -23.5t-43 -28t-60.5 -23t-82 -9.5q-61 0 -109 18.5t-81.5 51.5t-51.5 79.5t-18 101.5q0 51 16.5 97.5t48 82t77.5 56.5t105 21zM2225 286q50 0 80.5 -17.5t53.5 -54.5l15 1v55q0 41 -9.5 67t-26 40t-39.5 19t-50 5q-28 0 -48 -7t-33.5 -17.5 t-21.5 -21t-11 -18.5l-80 61q11 24 32 42.5t48 31t58.5 18.5t63.5 6q102 0 162 -54.5t60 -156.5v-285h-97v67l-22 2q-4 -15 -15 -29.5t-29 -26t-42.5 -18.5t-55.5 -7q-35 0 -65.5 10t-53 29.5t-35 47t-12.5 62.5t12.5 62.5t35.5 47t55 29.5t70 10zM10318 155 q26 -41 67 -60.5t78 -19.5q7 0 23.5 1.5t33.5 7t30 16t13 29.5q0 23 -20 34.5t-50.5 19.5t-66 16t-66 23.5t-50.5 43t-20 73.5q0 72 50 114.5t136 42.5q49 0 97 -16.5t83 -55.5l-69 -77q-38 62 -118 62q-42 0 -62.5 -14.5t-20.5 -39.5q0 -26 20 -39t50.5 -21t66 -15.5 t66 -22.5t50.5 -41.5t20 -72.5q0 -73 -52.5 -114t-146.5 -41q-65 0 -118 21t-83 63zM4397 0v484h105l-5 -89h25q5 17 16 35t29.5 32.5t45 24t61.5 9.5q81 0 128 -53.5t47 -150.5v-292h-105v259q0 74 -28.5 109.5t-90.5 35.5q-65 0 -94 -43.5t-29 -111.5v-249h-105zM8203 242 q0 -35 11.5 -64.5t31.5 -50.5t48 -33t62 -12t62 12t48.5 33t31.5 50.5t11 64.5t-11 64.5t-31.5 50.5t-48.5 33t-62 12t-62 -12t-48 -33t-31.5 -50.5t-11.5 -64.5zM6217 242q0 -34 10.5 -63t30 -50t46.5 -32.5t60 -11.5t60.5 11.5t47 32.5t30 50t10.5 63t-10.5 63t-30 50 t-47 32.5t-60.5 11.5t-60 -11.5t-46.5 -32.5t-30 -50t-10.5 -63zM5204 85q33 0 60.5 11.5t47 32.5t30 50t10.5 63t-10.5 63t-30 50t-47 32.5t-60.5 11.5t-60 -11.5t-46.5 -32.5t-30 -50t-10.5 -63t10.5 -63t30 -50t46.5 -32.5t60 -11.5zM783 85q33 0 60 11.5t46.5 32.5 t30 50t10.5 63t-10.5 63t-30 50t-46.5 32.5t-60 11.5t-60.5 -11.5t-47 -32.5t-30 -50t-10.5 -63t10.5 -63t30 -50t47 -32.5t60.5 -11.5zM7216 85q33 0 60 11.5t46.5 32.5t30 50t10.5 63t-10.5 63t-30 50t-46.5 32.5t-60 11.5t-60.5 -11.5t-47 -32.5t-30 -50t-10.5 -63 t10.5 -63t30 -50t47 -32.5t60.5 -11.5zM8968 85q33 0 60 11.5t46.5 32.5t30 50t10.5 63t-10.5 63t-30 50t-46.5 32.5t-60 11.5t-60.5 -11.5t-47 -32.5t-30 -50t-10.5 -63t10.5 -63t30 -50t47 -32.5t60.5 -11.5zM65 710h105v-710h-105v710zM9325 0v710h105v-710h-105zM2607 0 v710h105v-710h-105zM1691 484h105v-78h24q12 38 43.5 60.5t71.5 22.5q34 0 66 -16l-30 -109q-41 22 -77 22q-23 0 -40 -9t-29 -21.5t-19 -27.5t-10 -27v-301h-105v484zM403 484v-484h-105v484h105zM4164 0v484h105v-484h-105zM9641 279l14 -6q7 5 40.5 12.5t80.5 7.5 q29 0 49.5 -2t33.5 -5t20.5 -6t10.5 -6l14 5q0 32 -10 56.5t-27 41t-40 25t-49 8.5q-21 0 -44.5 -8t-43 -24t-33 -40.5t-16.5 -58.5zM5681 273q7 5 40.5 12.5t80.5 7.5q29 0 49.5 -2t33.5 -5t20.5 -6t10.5 -6l14 5q0 32 -10 56.5t-27 41t-40 25t-49 8.5q-21 0 -44.5 -8 t-43 -24t-33 -40.5t-16.5 -58.5zM7655 279l14 -6q7 5 40.5 12.5t80.5 7.5q29 0 49.5 -2t33.5 -5t20.5 -6t10.5 -6l14 5q0 32 -10 56.5t-27 41t-40 25t-49 8.5q-21 0 -44.5 -8t-43 -24t-33 -40.5t-16.5 -58.5zM1222 279l14 -6q7 5 40.5 12.5t80.5 7.5q29 0 49.5 -2t33.5 -5 t20.5 -6t10.5 -6l14 5q0 32 -10 56.5t-27 41t-40 25t-49 8.5q-21 0 -44.5 -8t-43 -24t-33 -40.5t-16.5 -58.5zM3119 343v-91h-288v91h288zM2243 73q20 0 40.5 5t38.5 13.5t32 20.5t21 25q-7 14 -21 25.5t-32 20t-38.5 13.5t-40.5 5q-42 0 -64.5 -17.5t-22.5 -46.5 t22.5 -46.5t64.5 -17.5zM10204 710v-118l-64 -150h-47l33 114q2 6 6.5 15t12.5 17l-10 11q-8 -5 -15 -6t-11 -1h-23v118h118zM4159 564v100h115v-100h-115zM293 664h115v-100h-115v100z"></glyph>
      <glyph glyph-name="l_i_b_e_r_a_l_hy_m_i_n_d_e_d_sp_p_e_o_p_l_e" d="M636 710v-223l-10 -91h25q15 42 54.5 71t98.5 29q47 0 89 -17t73.5 -49.5t50 -80t18.5 -107.5t-18.5 -107.5t-50 -80t-73.5 -49.5t-89 -17q-59 0 -98.5 29t-54.5 71h-25l10 -88h-105v710h105zM5183 496q59 0 98.5 -29t54.5 -71h25l-10 91v223h105v-710h-105l10 88h-25 q-15 -42 -54.5 -71t-98.5 -29q-47 0 -89 17t-73.5 49.5t-50 80t-18.5 107.5t18.5 107.5t50 80t73.5 49.5t89 17zM6112 242q0 60 18.5 107.5t50 80t73.5 49.5t89 17q59 0 98.5 -29t54.5 -71h25l-10 91v223h105v-710h-105l10 88h-25q-15 -42 -54.5 -71t-98.5 -29q-47 0 -89 17 t-73.5 49.5t-50 80t-18.5 107.5zM6964 -193v677h105l-10 -88h25q15 42 54.5 71t98.5 29q47 0 89 -17t73.5 -49.5t50 -80t18.5 -107.5t-18.5 -107.5t-50 -80t-73.5 -49.5t-89 -17q-59 0 -98.5 29t-54.5 71h-25l10 -91v-190h-105zM8716 -193v677h105l-10 -88h25q15 42 54.5 71 t98.5 29q47 0 89 -17t73.5 -49.5t50 -80t18.5 -107.5t-18.5 -107.5t-50 -80t-73.5 -49.5t-89 -17q-59 0 -98.5 29t-54.5 71h-25l10 -91v-190h-105zM8356 496q57 0 104 -19t81 -52.5t52.5 -80t18.5 -102.5q0 -55 -18.5 -102t-52.5 -80.5t-81 -52.5t-104 -19t-104 19t-81 52.5 t-52.5 80.5t-18.5 102q0 56 18.5 102.5t52.5 80t81 52.5t104 19zM3238 484h105l-5 -89h25q5 17 16 35t29.5 32.5t44.5 24t61 9.5q60 0 99 -29.5t58 -78.5h22q5 17 18.5 36t35.5 35t50.5 26.5t63.5 10.5q84 0 130 -51.5t46 -141.5v-303h-105v251q0 82 -27.5 117t-94.5 35 q-59 0 -89.5 -42.5t-30.5 -111.5v-249h-105v251q0 82 -27.5 117t-94.5 35q-59 0 -89.5 -42.5t-30.5 -111.5v-249h-105v484zM9781 496q62 0 107.5 -22t74 -60.5t39.5 -89t3 -107.5h-366q9 -61 51.5 -98t109.5 -37q28 0 52.5 7t44.5 17t35 22.5t24 22.5l51 -79 q-10 -9 -27.5 -23.5t-43 -28t-60.5 -23t-82 -9.5q-61 0 -109 18.5t-81.5 51.5t-51.5 79.5t-18 101.5q0 51 16.5 97.5t48 82t77.5 56.5t105 21zM5807 496q62 0 107.5 -22t74 -60.5t39.5 -89t3 -107.5h-366q9 -61 51.5 -98t109.5 -37q28 0 52.5 7t44.5 17t35 22.5t24 22.5 l51 -79q-10 -9 -27.5 -23.5t-43 -28t-60.5 -23t-82 -9.5q-61 0 -109 18.5t-81.5 51.5t-51.5 79.5t-18 101.5q0 51 16.5 97.5t48 82t77.5 56.5t105 21zM1362 496q62 0 107.5 -22t74 -60.5t39.5 -89t3 -107.5h-366q9 -61 51.5 -98t109.5 -37q28 0 52.5 7t44.5 17t35 22.5 t24 22.5l51 -79q-10 -9 -27.5 -23.5t-43 -28t-60.5 -23t-82 -9.5q-61 0 -109 18.5t-81.5 51.5t-51.5 79.5t-18 101.5q0 51 16.5 97.5t48 82t77.5 56.5t105 21zM7795 496q62 0 107.5 -22t74 -60.5t39.5 -89t3 -107.5h-366q9 -61 51.5 -98t109.5 -37q28 0 52.5 7t44.5 17 t35 22.5t24 22.5l51 -79q-10 -9 -27.5 -23.5t-43 -28t-60.5 -23t-82 -9.5q-61 0 -109 18.5t-81.5 51.5t-51.5 79.5t-18 101.5q0 51 16.5 97.5t48 82t77.5 56.5t105 21zM2225 286q50 0 80.5 -17.5t53.5 -54.5l15 1v55q0 41 -9.5 67t-26 40t-39.5 19t-50 5q-28 0 -48 -7 t-33.5 -17.5t-21.5 -21t-11 -18.5l-80 61q11 24 32 42.5t48 31t58.5 18.5t63.5 6q102 0 162 -54.5t60 -156.5v-285h-97v67l-22 2q-4 -15 -15 -29.5t-29 -26t-42.5 -18.5t-55.5 -7q-35 0 -65.5 10t-53 29.5t-35 47t-12.5 62.5t12.5 62.5t35.5 47t55 29.5t70 10zM4397 0v484 h105l-5 -89h25q5 17 16 35t29.5 32.5t45 24t61.5 9.5q81 0 128 -53.5t47 -150.5v-292h-105v259q0 74 -28.5 109.5t-90.5 35.5q-65 0 -94 -43.5t-29 -111.5v-249h-105zM8356 82q34 0 62 12t48.5 33t31.5 50.5t11 64.5t-11 64.5t-31.5 50.5t-48.5 33t-62 12t-62 -12t-48 -33 t-31.5 -50.5t-11.5 -64.5t11.5 -64.5t31.5 -50.5t48 -33t62 -12zM6217 242q0 -34 10.5 -63t30 -50t46.5 -32.5t60 -11.5t60.5 11.5t47 32.5t30 50t10.5 63t-10.5 63t-30 50t-47 32.5t-60.5 11.5t-60 -11.5t-46.5 -32.5t-30 -50t-10.5 -63zM7216 85q33 0 60 11.5t46.5 32.5 t30 50t10.5 63t-10.5 63t-30 50t-46.5 32.5t-60 11.5t-60.5 -11.5t-47 -32.5t-30 -50t-10.5 -63t10.5 -63t30 -50t47 -32.5t60.5 -11.5zM8968 85q33 0 60 11.5t46.5 32.5t30 50t10.5 63t-10.5 63t-30 50t-46.5 32.5t-60 11.5t-60.5 -11.5t-47 -32.5t-30 -50t-10.5 -63 t10.5 -63t30 -50t47 -32.5t60.5 -11.5zM635 242q0 -34 10.5 -63t30 -50t47 -32.5t60.5 -11.5t60 11.5t46.5 32.5t30 50t10.5 63t-10.5 63t-30 50t-46.5 32.5t-60 11.5t-60.5 -11.5t-47 -32.5t-30 -50t-10.5 -63zM5204 85q33 0 60.5 11.5t47 32.5t30 50t10.5 63t-10.5 63 t-30 50t-47 32.5t-60.5 11.5t-60 -11.5t-46.5 -32.5t-30 -50t-10.5 -63t10.5 -63t30 -50t46.5 -32.5t60 -11.5zM170 710v-710h-105v710h105zM2607 710h105v-710h-105v710zM9325 710h105v-710h-105v710zM1796 484v-78h24q12 38 43.5 60.5t71.5 22.5q34 0 66 -16l-30 -109 q-41 22 -77 22q-23 0 -40 -9t-29 -21.5t-19 -27.5t-10 -27v-301h-105v484h105zM4164 484h105v-484h-105v484zM403 484v-484h-105v484h105zM1222 279l14 -6q7 5 40.5 12.5t80.5 7.5q29 0 49.5 -2t33.5 -5t20.5 -6t10.5 -6l14 5q0 32 -10 56.5t-27 41t-40 25t-49 8.5 q-21 0 -44.5 -8t-43 -24t-33 -40.5t-16.5 -58.5zM7669 273q7 5 40.5 12.5t80.5 7.5q29 0 49.5 -2t33.5 -5t20.5 -6t10.5 -6l14 5q0 32 -10 56.5t-27 41t-40 25t-49 8.5q-21 0 -44.5 -8t-43 -24t-33 -40.5t-16.5 -58.5zM5681 273q7 5 40.5 12.5t80.5 7.5q29 0 49.5 -2 t33.5 -5t20.5 -6t10.5 -6l14 5q0 32 -10 56.5t-27 41t-40 25t-49 8.5q-21 0 -44.5 -8t-43 -24t-33 -40.5t-16.5 -58.5zM9655 273q7 5 40.5 12.5t80.5 7.5q29 0 49.5 -2t33.5 -5t20.5 -6t10.5 -6l14 5q0 32 -10 56.5t-27 41t-40 25t-49 8.5q-21 0 -44.5 -8t-43 -24t-33 -40.5 t-16.5 -58.5zM2831 252v91h288v-91h-288zM2243 73q20 0 40.5 5t38.5 13.5t32 20.5t21 25q-7 14 -21 25.5t-32 20t-38.5 13.5t-40.5 5q-42 0 -64.5 -17.5t-22.5 -46.5t22.5 -46.5t64.5 -17.5zM4274 664v-100h-115v100h115zM293 664h115v-100h-115v100z"></glyph>
      <glyph glyph-name="t_h_e_y_sp_m_a_t_t_e_r" d="M2509 484l-5 -89h25q5 17 16 35t29.5 32.5t44.5 24t61 9.5q60 0 99 -29.5t58 -78.5h22q5 17 18.5 36t35.5 35t50.5 26.5t63.5 10.5q84 0 130 -51.5t46 -141.5v-303h-105v251q0 82 -27.5 117t-94.5 35q-59 0 -89.5 -42.5t-30.5 -111.5v-249h-105v251q0 82 -27.5 117 t-94.5 35q-59 0 -89.5 -42.5t-30.5 -111.5v-249h-105v484h105zM5012 496q62 0 107.5 -22t74 -60.5t39.5 -89t3 -107.5h-366q9 -61 51.5 -98t109.5 -37q28 0 52.5 7t44.5 17t35 22.5t24 22.5l51 -79q-10 -9 -27.5 -23.5t-43 -28t-60.5 -23t-82 -9.5q-61 0 -109 18.5 t-81.5 51.5t-51.5 79.5t-18 101.5q0 51 16.5 97.5t48 82t77.5 56.5t105 21zM1347 496q62 0 107.5 -22t74 -60.5t39.5 -89t3 -107.5h-366q9 -61 51.5 -98t109.5 -37q28 0 52.5 7t44.5 17t35 22.5t24 22.5l51 -79q-10 -9 -27.5 -23.5t-43 -28t-60.5 -23t-82 -9.5 q-61 0 -109 18.5t-81.5 51.5t-51.5 79.5t-18 101.5q0 51 16.5 97.5t48 82t77.5 56.5t105 21zM3308 137q0 35 12.5 62.5t35.5 47t55 29.5t70 10q50 0 80.5 -17.5t53.5 -54.5l15 1v55q0 41 -9.5 67t-26 40t-39.5 19t-50 5q-28 0 -48 -7t-33.5 -17.5t-21.5 -21t-11 -18.5 l-80 61q11 24 32 42.5t48 31t58.5 18.5t63.5 6q102 0 162 -54.5t60 -156.5v-285h-97v67l-22 2q-4 -15 -15 -29.5t-29 -26t-42.5 -18.5t-55.5 -7q-35 0 -65.5 10t-53 29.5t-35 47t-12.5 62.5zM545 0v710h105v-214q0 -37 -3 -60t-7 -40h27q5 17 16.5 34.5t30.5 32t46 24 t62 9.5q81 0 128 -53.5t47 -150.5v-292h-105v249q0 71 -27.5 113t-91.5 42q-65 0 -94 -43.5t-29 -111.5v-249h-105zM1598 -177l29 93q6 -6 14.5 -9.5t17.5 -5.5t17 -3t13 -1q67 0 120 123l-199 464h115l77 -197q20 -50 31.5 -94t13.5 -74h25q2 30 13.5 74t31.5 94l77 197 h114l-210 -488q-25 -58 -50 -96t-50.5 -60t-52 -31t-54.5 -9q-22 0 -45 5t-48 18zM3789 484h107v196h105v-126q0 -18 -9 -39t-26 -32l17 -19q12 8 25.5 14t33.5 6h162v-90h-203v-210q0 -55 20.5 -79.5t57.5 -24.5q31 0 67.5 18t63.5 46l39 -84q-40 -35 -87.5 -53.5 t-97.5 -18.5q-77 0 -122.5 43.5t-45.5 134.5v228h-107v90zM4377 484v196h105v-126q0 -18 -9 -39t-26 -32l17 -19q12 8 25.5 14t33.5 6h162v-90h-203v-210q0 -55 20.5 -79.5t57.5 -24.5q31 0 67.5 18t63.5 46l39 -84q-40 -35 -87.5 -53.5t-97.5 -18.5q-77 0 -122.5 43.5 t-45.5 134.5v228h-107v90h107zM9 484h107v196h105v-126q0 -18 -9 -39t-26 -32l17 -19q12 8 25.5 14t33.5 6h162v-90h-203v-210q0 -55 20.5 -79.5t57.5 -24.5q31 0 67.5 18t63.5 46l39 -84q-40 -35 -87.5 -53.5t-97.5 -18.5q-77 0 -122.5 43.5t-45.5 134.5v228h-107v90z M5341 0v484h105v-78h24q12 38 43.5 60.5t71.5 22.5q34 0 66 -16l-30 -109q-41 22 -77 22q-23 0 -40 -9t-29 -21.5t-19 -27.5t-10 -27v-301h-105zM1207 279l14 -6q7 5 40.5 12.5t80.5 7.5q29 0 49.5 -2t33.5 -5t20.5 -6t10.5 -6l14 5q0 32 -10 56.5t-27 41t-40 25t-49 8.5 q-21 0 -44.5 -8t-43 -24t-33 -40.5t-16.5 -58.5zM4872 279l14 -6q7 5 40.5 12.5t80.5 7.5q29 0 49.5 -2t33.5 -5t20.5 -6t10.5 -6l14 5q0 32 -10 56.5t-27 41t-40 25t-49 8.5q-21 0 -44.5 -8t-43 -24t-33 -40.5t-16.5 -58.5zM3499 73q20 0 40.5 5t38.5 13.5t32 20.5t21 25 q-7 14 -21 25.5t-32 20t-38.5 13.5t-40.5 5q-42 0 -64.5 -17.5t-22.5 -46.5t22.5 -46.5t64.5 -17.5z"></glyph>
      <glyph glyph-name="l_i_b_e_r_a_l_hy_m_i_n_d_e_d_sp_p_e_r_s_o_n" d="M6343 496q59 0 98.5 -29t54.5 -71h25l-10 91v223h105v-710h-105l10 88h-25q-15 -42 -54.5 -71t-98.5 -29q-47 0 -89 17t-73.5 49.5t-50 80t-18.5 107.5t18.5 107.5t50 80t73.5 49.5t89 17zM4952 242q0 60 18.5 107.5t50 80t73.5 49.5t89 17q59 0 98.5 -29t54.5 -71h25 l-10 91v223h105v-710h-105l10 88h-25q-15 -42 -54.5 -71t-98.5 -29q-47 0 -89 17t-73.5 49.5t-50 80t-18.5 107.5zM531 0v710h105v-223l-10 -91h25q15 42 54.5 71t98.5 29q47 0 89 -17t73.5 -49.5t50 -80t18.5 -107.5t-18.5 -107.5t-50 -80t-73.5 -49.5t-89 -17 q-59 0 -98.5 29t-54.5 71h-25l10 -88h-105zM7069 484l-10 -88h25q15 42 54.5 71t98.5 29q47 0 89 -17t73.5 -49.5t50 -80t18.5 -107.5t-18.5 -107.5t-50 -80t-73.5 -49.5t-89 -17q-59 0 -98.5 29t-54.5 71h-25l10 -91v-190h-105v677h105zM9176 496q57 0 104 -19t81 -52.5 t52.5 -80t18.5 -102.5q0 -55 -18.5 -102t-52.5 -80.5t-81 -52.5t-104 -19t-104 19t-81 52.5t-52.5 80.5t-18.5 102q0 56 18.5 102.5t52.5 80t81 52.5t104 19zM3343 484l-5 -89h25q5 17 16 35t29.5 32.5t44.5 24t61 9.5q60 0 99 -29.5t58 -78.5h22q5 17 18.5 36t35.5 35 t50.5 26.5t63.5 10.5q84 0 130 -51.5t46 -141.5v-303h-105v251q0 82 -27.5 117t-94.5 35q-59 0 -89.5 -42.5t-30.5 -111.5v-249h-105v251q0 82 -27.5 117t-94.5 35q-59 0 -89.5 -42.5t-30.5 -111.5v-249h-105v484h105zM5560 239q0 51 16.5 97.5t48 82t77.5 56.5t105 21 q62 0 107.5 -22t74 -60.5t39.5 -89t3 -107.5h-366q9 -61 51.5 -98t109.5 -37q28 0 52.5 7t44.5 17t35 22.5t24 22.5l51 -79q-10 -9 -27.5 -23.5t-43 -28t-60.5 -23t-82 -9.5q-61 0 -109 18.5t-81.5 51.5t-51.5 79.5t-18 101.5zM1362 496q62 0 107.5 -22t74 -60.5t39.5 -89 t3 -107.5h-366q9 -61 51.5 -98t109.5 -37q28 0 52.5 7t44.5 17t35 22.5t24 22.5l51 -79q-10 -9 -27.5 -23.5t-43 -28t-60.5 -23t-82 -9.5q-61 0 -109 18.5t-81.5 51.5t-51.5 79.5t-18 101.5q0 51 16.5 97.5t48 82t77.5 56.5t105 21zM7795 496q62 0 107.5 -22t74 -60.5 t39.5 -89t3 -107.5h-366q9 -61 51.5 -98t109.5 -37q28 0 52.5 7t44.5 17t35 22.5t24 22.5l51 -79q-10 -9 -27.5 -23.5t-43 -28t-60.5 -23t-82 -9.5q-61 0 -109 18.5t-81.5 51.5t-51.5 79.5t-18 101.5q0 51 16.5 97.5t48 82t77.5 56.5t105 21zM2052 137q0 35 12.5 62.5 t35.5 47t55 29.5t70 10q50 0 80.5 -17.5t53.5 -54.5l15 1v55q0 41 -9.5 67t-26 40t-39.5 19t-50 5q-28 0 -48 -7t-33.5 -17.5t-21.5 -21t-11 -18.5l-80 61q11 24 32 42.5t48 31t58.5 18.5t63.5 6q102 0 162 -54.5t60 -156.5v-285h-97v67l-22 2q-4 -15 -15 -29.5t-29 -26 t-42.5 -18.5t-55.5 -7q-35 0 -65.5 10t-53 29.5t-35 47t-12.5 62.5zM8512 155q26 -41 67 -60.5t78 -19.5q7 0 23.5 1.5t33.5 7t30 16t13 29.5q0 23 -20 34.5t-50.5 19.5t-66 16t-66 23.5t-50.5 43t-20 73.5q0 72 50 114.5t136 42.5q49 0 97 -16.5t83 -55.5l-69 -77 q-38 62 -118 62q-42 0 -62.5 -14.5t-20.5 -39.5q0 -26 20 -39t50.5 -21t66 -15.5t66 -22.5t50.5 -41.5t20 -72.5q0 -73 -52.5 -114t-146.5 -41q-65 0 -118 21t-83 63zM4397 0v484h105l-5 -89h25q5 17 16 35t29.5 32.5t45 24t61.5 9.5q81 0 128 -53.5t47 -150.5v-292h-105 v259q0 74 -28.5 109.5t-90.5 35.5q-65 0 -94 -43.5t-29 -111.5v-249h-105zM9536 0v484h105l-5 -89h25q5 17 16 35t29.5 32.5t45 24t61.5 9.5q81 0 128 -53.5t47 -150.5v-292h-105v259q0 74 -28.5 109.5t-90.5 35.5q-65 0 -94 -43.5t-29 -111.5v-249h-105zM9023 242 q0 -35 11.5 -64.5t31.5 -50.5t48 -33t62 -12t62 12t48.5 33t31.5 50.5t11 64.5t-11 64.5t-31.5 50.5t-48.5 33t-62 12t-62 -12t-48 -33t-31.5 -50.5t-11.5 -64.5zM783 85q33 0 60 11.5t46.5 32.5t30 50t10.5 63t-10.5 63t-30 50t-46.5 32.5t-60 11.5t-60.5 -11.5t-47 -32.5 t-30 -50t-10.5 -63t10.5 -63t30 -50t47 -32.5t60.5 -11.5zM6217 242q0 -34 10.5 -63t30 -50t46.5 -32.5t60 -11.5t60.5 11.5t47 32.5t30 50t10.5 63t-10.5 63t-30 50t-47 32.5t-60.5 11.5t-60 -11.5t-46.5 -32.5t-30 -50t-10.5 -63zM7216 85q33 0 60 11.5t46.5 32.5t30 50 t10.5 63t-10.5 63t-30 50t-46.5 32.5t-60 11.5t-60.5 -11.5t-47 -32.5t-30 -50t-10.5 -63t10.5 -63t30 -50t47 -32.5t60.5 -11.5zM5204 85q33 0 60.5 11.5t47 32.5t30 50t10.5 63t-10.5 63t-30 50t-47 32.5t-60.5 11.5t-60 -11.5t-46.5 -32.5t-30 -50t-10.5 -63t10.5 -63 t30 -50t46.5 -32.5t60 -11.5zM170 710v-710h-105v710h105zM2607 0v710h105v-710h-105zM8124 0v484h105v-78h24q12 38 43.5 60.5t71.5 22.5q34 0 66 -16l-30 -109q-41 22 -77 22q-23 0 -40 -9t-29 -21.5t-19 -27.5t-10 -27v-301h-105zM1796 484v-78h24q12 38 43.5 60.5 t71.5 22.5q34 0 66 -16l-30 -109q-41 22 -77 22q-23 0 -40 -9t-29 -21.5t-19 -27.5t-10 -27v-301h-105v484h105zM4164 0v484h105v-484h-105zM298 484h105v-484h-105v484zM1236 273q7 5 40.5 12.5t80.5 7.5q29 0 49.5 -2t33.5 -5t20.5 -6t10.5 -6l14 5q0 32 -10 56.5t-27 41 t-40 25t-49 8.5q-21 0 -44.5 -8t-43 -24t-33 -40.5t-16.5 -58.5zM7669 273q7 5 40.5 12.5t80.5 7.5q29 0 49.5 -2t33.5 -5t20.5 -6t10.5 -6l14 5q0 32 -10 56.5t-27 41t-40 25t-49 8.5q-21 0 -44.5 -8t-43 -24t-33 -40.5t-16.5 -58.5zM5667 279l14 -6q7 5 40.5 12.5 t80.5 7.5q29 0 49.5 -2t33.5 -5t20.5 -6t10.5 -6l14 5q0 32 -10 56.5t-27 41t-40 25t-49 8.5q-21 0 -44.5 -8t-43 -24t-33 -40.5t-16.5 -58.5zM2831 343h288v-91h-288v91zM2156 137q0 -29 22.5 -46.5t64.5 -17.5q20 0 40.5 5t38.5 13.5t32 20.5t21 25q-7 14 -21 25.5t-32 20 t-38.5 13.5t-40.5 5q-42 0 -64.5 -17.5t-22.5 -46.5zM4159 664h115v-100h-115v100zM293 664h115v-100h-115v100z"></glyph>
      </font>
</defs>
</svg>
